Красная Шапочка и Мальчик-с-пальчик против монстров / Caperucita y Pulgarcito contra los monstruos (Роберто Родригес (II) / Roberto Rodríguez) [1962, Мексика, Детский, семейный, сказка, мюзикл, комедия, фэнтез, DVDRip] DVO (den904 & dea

DL-List and Torrent activity
Size:  1.46 GB   |    Registered:  2 years 10 months   |    Completed:  16 times
Seeders:  3  
 
   
 
 

Max Levien ®

Longevity:
2 years 10 months
Posts:
20374

[Quote] 

Красная Шапочка и Мальчик-с-пальчик против монстров / Caperucita y Pulgarcito contra los monstruos
Страна: Мексика
Студия: Películas Rodríguez S.A.
Жанр: Детский, семейный, сказка, мюзикл, комедия, фэнтези
Год выпуска: 1962
Продолжительность: 01:21:21
Перевод: Любительский (двухголосый закадровый) (den904 & deadsno)
Субтитры: нет
Оригинальная аудиодорожка: испанский
Режиссер: Роберто Родригес (II) / Roberto Rodríguez
В ролях: Мария Грация, Сесарео Кесадас, Хосе Элиас Морено, Мануэль «Локо» Вальдес, Santanón, Офелиа Гильмаин, Армандо Гутьеррес, Мигель Инклан мл., Альфредо де Сото, Эльвира Лоди
Описание: Приключения Красной Шапочки и Мальчика-с-пальчика, храбро сражающихся против Королевы-ведьмы и её монстров.
Доп. информация: Oчередная жемчужинка в коллекцию истинным ценителям трэша! Детям показывайте на свой страх и риск - похоже, мексиканские кинематографисты не видят особой разницы между детской сказкой и фильмом ужасов
Сэмпл: https://yadi.sk/i/Ng6vyZV53JDrmu (на русском), https://yadi.sk/i/nTqLB_Ji3JGsey (на испанском)
Качество видео: DVDRip
Формат видео: AVI
Видео: XviD, 640x480 (4:3), 23,976 fps, 1659 kbps
Аудио: Русский (AC3, 6 ch, 448 Кбит/с)
Аудио 2: испанский (AC3, 6 ch, 448 Кбит/с)

MediaInfo

Общее
Полное имя : C:\Users\Оля\Downloads\Видео\Caperucita y Pulgarcito contra los monstruos (1962).avi
Формат : AVI
Формат/Информация : Audio Video Interleave
Размер файла : 1,46 Гбайт
Продолжительность : 1 ч. 21 м.
Общий поток : 2564 Кбит/сек
Программа кодирования : VirtualDubMod 1.5.4.1 (build 2178/release)
Библиотека кодирования : VirtualDubMod build 2178/release
Видео
Идентификатор : 0
Формат : MPEG-4 Visual
Профиль формата : Advanced [email protected]
Параметр BVOP формата : 1
Параметр QPel формата : Нет
Параметр GMC формата : Без точки перехода
Параметр матрицы формата : Выборочная
Идентификатор кодека : XVID
Идентификатор кодека/Подсказка : XviD
Продолжительность : 1 ч. 21 м.
Битрейт : 1659 Кбит/сек
Ширина : 640 пикселей
Высота : 480 пикселей
Соотношение сторон : 4:3
Частота кадров : 23,976 (24000/1001) кадра/сек
Цветовое пространство : YUV
Субдискретизация насыщенности : 4:2:0
Битовая глубина : 8 бит
Тип развёртки : Прогрессивная
Метод сжатия : С потерями
Бит/(Пиксели*Кадры) : 0.225
Размер потока : 966 Мбайт (65%)
Библиотека кодирования : XviD 1.2.1 (UTC 2008-12-04)
Аудио #1
Идентификатор : 1
Формат : AC-3
Формат/Информация : Audio Coding 3
Параметр Endianness формата : Big
Идентификатор кодека : 2000
Продолжительность : 1 ч. 21 м.
Вид битрейта : Постоянный
Битрейт : 448 Кбит/сек
Каналы : 6 каналов
Расположение каналов : Front: L C R, Side: L R, LFE
Частота : 48,0 КГц
Частота кадров : 31,250 кадров/сек (1536 spf)
Битовая глубина : 16 бит
Метод сжатия : С потерями
Размер потока : 261 Мбайт (17%)
Выравнивание : Разделение по промежуткам
Продолжительность промежутка : 96 мс. (2,30 видеокадра)
Время предзагрузки промежутка : 96 мс.
Язык : Russian
ServiceKind/String : Complete Main
Аудио #2
Идентификатор : 2
Формат : AC-3
Формат/Информация : Audio Coding 3
Параметр Endianness формата : Big
Идентификатор кодека : 2000
Продолжительность : 1 ч. 21 м.
Вид битрейта : Постоянный
Битрейт : 448 Кбит/сек
Каналы : 6 каналов
Расположение каналов : Front: L C R, Side: L R, LFE
Частота : 48,0 КГц
Частота кадров : 31,250 кадров/сек (1536 spf)
Битовая глубина : 16 бит
Метод сжатия : С потерями
Размер потока : 261 Мбайт (17%)
Выравнивание : Разделение по промежуткам
Продолжительность промежутка : 96 мс. (2,30 видеокадра)
Время предзагрузки промежутка : 96 мс.
Язык : Espanol
ServiceKind/String : Complete Main

Скриншоты

If your ratio falls below 0.3, you will not be able to download Torrents! More about the rating.

[erzsebet.pl].t51662.torrent
Torrent: Registered   [ 2017-12-11 02:36 ]

Download .torrent

Download

15 KB

Status: checked
Completed: 16 times
Size: 1.46 GB
terms.php

#1

11-Dec-2017 01:28

[Profile]  [PM] 
Display posts:    

You cannot post new topics in this forum
You cannot reply to topics in this forum
You cannot edit your posts in this forum
You cannot delete your posts in this forum
You cannot vote in polls in this forum
You cannot attach files in this forum
You can download files in this forum
User agreement
For copyright holders
Advertise on this site

Скачайте на халяву через торрент на трекере erzsebet.pl

!ATTENTION!
The site does not give electronic versions of products, and is engaged only in a collecting and cataloguing of the references sent and published at a forum by our readers. If you are the legal owner of any submitted material and do not wish that the reference to it was in our catalogue, contact us and we shall immediately remove her. Files for an exchange on tracker are given by users of a site, and the administration does not bear the responsibility for their maintenance. The request to not fill in the files protected by copyrights, and also files of the illegal maintenance!