Война полиций / La Guerre Des Polices (Робин Дэвис / Robin Davis) [1979, Франция, Криминал, драма, DVDRip] MVO (1 канал) + Original Fre

DL-List and Torrent activity
Size:  1.49 GB   |    Registered:  2 years 10 months   |    Completed:  16 times
Seeders:  2  
 
   
 
 

Max Levien ®

Longevity:
2 years 10 months
Posts:
20374

[Quote] 

Война полиций / La Guerre Des Polices
Страна: Франция
Жанр: Криминал, драма
Год выпуска: 1979
Продолжительность: 01:39:02
Перевод: Профессиональный (многоголосый закадровый) 1 канал
Субтитры: нет
Оригинальная аудиодорожка: французский
Режиссер: Робин Дэвис / Robin Davis
В ролях: Клод Брассер, Марлен Жобер, Клод Риш, Жорж Стэк, Жан-Франсуа Стевенен, Этьенн Чико, Жан Руджери,Руфус, Жан-Пьер Калфон, Федор Аткин, Франсуа Перье, Мишель Берто, Филипп Вилье, Людмила Микаэль, Жерар Дезар
Описание: Комиссар Баллестра, извращенец и садист, руководит территориальной бригадой, в то время как комиссар Фуш, намного более человечный, стоит во главе особой бригады. Чтобы взять Сарлата,врага общества номер один,они устраивают беспощадную войну,отрицающую правила и законы сотрудничества ...
Один из признанных французских криминальных фильмов,в котором типичная для поляра схема "полиция и преступники",заменяется отчаянным и доходящим до ненависти соперничеством двух полицейских подразделений.
Клод Брассер, за роль комиссара Фуша, получил премию Cesar
Участие в написании сценария принимал один из лучших представителей французской криминальной литературы Жан-Патрик Маншетт
Доп. информация: Релиз
Большое спасибо за предоставленную видеокассету yanina.tet
Оцифровка кассеты и синхронизация звука Urasiko
Рип взят с раздачи с двухголоской http://erzsebet.org/forum/viewtopic.php?t=3453084
Сэмпл: http://multi-up.com/1103633
Качество видео: DVDRip
Формат видео: AVI
Видео: 720x432 (1.67:1), 25 fps, XviD build 50 ~1750 kbps avg, 0.23 bit/pixel
Аудио: (Rus) 48 kHz, AC3 Dolby Digital, 2/0 (L,R) ch, ~192 kbps
Аудио 2: (Fra) 48 kHz, AC3 Dolby Digital, 2/0 (L,R) ch, ~192 kbps

MediaInfo

Общее
Полное имя : F:\Voina Polizii.avi
Формат : AVI
Формат/Информация : Audio Video Interleave
Размер файла : 1,49 Гбайт
Продолжительность : 1 ч. 39 м.
Общий поток : 2150 Кбит/сек
Программа кодирования : VirtualDubMod 1.5.10.2 (build 2540/release)
Библиотека кодирования : VirtualDubMod build 2540/release
Видео
Идентификатор : 0
Формат : MPEG-4 Visual
Профиль формата : Advanced [email protected]
Параметр BVOP формата : 1
Параметр QPel формата : Нет
Параметр GMC формата : Без точки перехода
Параметр матрицы формата : Default (MPEG)
Идентификатор кодека : XVID
Идентификатор кодека/Подсказка : XviD
Продолжительность : 1 ч. 39 м.
Битрейт : 1752 Кбит/сек
Ширина : 720 пикселей
Высота : 432 пикселя
Соотношение сторон : 5:3
Частота кадров : 25,000 кадров/сек
Цветовое пространство : YUV
Субдискретизация насыщенности : 4:2:0
Битовая глубина : 8 бит
Тип развёртки : Прогрессивная
Метод сжатия : С потерями
Бит/(Пиксели*Кадры) : 0.225
Размер потока : 1,21 Гбайт (81%)
Библиотека кодирования : XviD 1.2.1 (UTC 2008-12-04)
Аудио #1
Идентификатор : 1
Формат : AC-3
Формат/Информация : Audio Coding 3
Расширение режима : CM (complete main)
Параметр Endianness формата : Big
Идентификатор кодека : 2000
Продолжительность : 1 ч. 39 м.
Вид битрейта : Постоянный
Битрейт : 192 Кбит/сек
Каналы : 2 канала
Расположение каналов : Front: L R
Частота : 48,0 КГц
Частота кадров : 31,250 кадров/сек (1536 spf)
Метод сжатия : С потерями
Размер потока : 136 Мбайт (9%)
Выравнивание : Разделение по промежуткам
Продолжительность промежутка : 40 мс. (1,00 видеокадр)
Время предзагрузки промежутка : 500 мс.
Аудио #2
Идентификатор : 2
Формат : AC-3
Формат/Информация : Audio Coding 3
Расширение режима : CM (complete main)
Параметр Endianness формата : Big
Идентификатор кодека : 2000
Продолжительность : 1 ч. 39 м.
Вид битрейта : Постоянный
Битрейт : 192 Кбит/сек
Каналы : 2 канала
Расположение каналов : Front: L R
Частота : 48,0 КГц
Частота кадров : 31,250 кадров/сек (1536 spf)
Метод сжатия : С потерями
Размер потока : 136 Мбайт (9%)
Выравнивание : Разделение по промежуткам
Продолжительность промежутка : 40 мс. (1,00 видеокадр)
Время предзагрузки промежутка : 500 мс.

Скриншот c названием фильма

Скриншоты

If your ratio falls below 0.3, you will not be able to download Torrents! More about the rating.

[erzsebet.pl].t51665.torrent
Torrent: Registered   [ 2017-12-11 02:36 ]

Download .torrent

Download

15 KB

Status: checked
Completed: 16 times
Size: 1.49 GB
terms.php

#1

11-Dec-2017 01:28

[Profile]  [PM] 
Display posts:    

You cannot post new topics in this forum
You cannot reply to topics in this forum
You cannot edit your posts in this forum
You cannot delete your posts in this forum
You cannot vote in polls in this forum
You cannot attach files in this forum
You can download files in this forum
User agreement
For copyright holders
Advertise on this site

Скачайте на халяву через торрент на трекере erzsebet.pl

!ATTENTION!
The site does not give electronic versions of products, and is engaged only in a collecting and cataloguing of the references sent and published at a forum by our readers. If you are the legal owner of any submitted material and do not wish that the reference to it was in our catalogue, contact us and we shall immediately remove her. Files for an exchange on tracker are given by users of a site, and the administration does not bear the responsibility for their maintenance. The request to not fill in the files protected by copyrights, and also files of the illegal maintenance!