Частная школа / Private School (Ноэль Блэк / Noel Black) [1983, США, комедия, мелодрама, HDTVRip] DVO

DL-List and Torrent activity
Size:  742 MB   |    Registered:  2 years 10 months   |    Completed:  16 times
Seeders:  2  
 
   
 
 

Max Levien ®

Longevity:
2 years 10 months
Posts:
20374

[Quote] 

Частная школа / Private School
Страна: США
Жанр: комедия, мелодрама
Год выпуска: 1983
Продолжительность: 01:28:20
Перевод: Профессиональный (двухголосый закадровый) Шестой канал Санкт-Петербург по заказу канала СТС
Субтитры: нет
Режиссер: Ноэль Блэк / Noel Black
В ролях: Фиби Кейтс, Бетси Расселл, Мэтью Модайн, Майкл Зорек, Фран Райан, Кэтлин Уилхойт, Рей Уолстон, Сильвия Кристель, Джонатан Принц, Кэри Лайзер, Ричард Стал, Джули Пэйн, Фрэнк Элеттер.
Описание: В академии для благородных девиц состоится «большой бал». Приедут благородные юноши, а, кроме того, члены строительного комитета, решающие вопрос о пристройке нового крыла к зданию академии. Девушкам предстоит непростая работа - за один вечер очаровать всех молодых людей и комитетчиков.

Качество видео: HDTVRip Исходник
Формат видео: AVI
Видео: 608x336, 23.976 fps, XviD ~1069 kbps avg, 0.218 bit/pixel
Аудио: 48 kHz, MPEG Layer 3, 1 ch, ~96 kbps avgРелиз группы

Сравнение

http://erzsebet.org/forum/viewtopic.php?t=933562 - http://screenshotcomparison.com/comparison/146929 переводы одинаковые, однако у меня моно, у конкурента - стерео.

MediaInfo

Код:General
Complete name : C:\Private School (1983) HDTVRip.avi
Format : AVI
Format/Info : Audio Video Interleave
File size : 742 MiB
Duration : 1h 28mn
Overall bit rate : 1 174 Kbps
Writing application : VirtualDubMod 1.5.10.2 (build 2540/release)
Writing library : VirtualDubMod build 2540/release
Video
ID : 0
Format : MPEG-4 Visual
Format profile : Advanced [email protected]
Format settings, BVOP : No
Format settings, QPel : No
Format settings, GMC : No warppoints
Format settings, Matrix : Default (H.263)
Codec ID : XVID
Codec ID/Hint : XviD
Duration : 1h 28mn
Bit rate : 1 069 Kbps
Width : 608 pixels
Height : 336 pixels
Display aspect ratio : 16:9
Frame rate : 23.976 fps
Color space : YUV
Chroma subsampling : 4:2:0
Bit depth : 8 bits
Scan type : Progressive
Compression mode : Lossy
Bits/(Pixel*Frame) : 0.218
Stream size : 675 MiB (91%)
Writing library : XviD 1.2.1 (UTC 2008-12-04)
Audio
ID : 1
Format : MPEG Audio
Format version : Version 1
Format profile : Layer 3
Codec ID : 55
Codec ID/Hint : MP3
Duration : 1h 28mn
Bit rate mode : Constant
Bit rate : 96.0 Kbps
Channel(s) : 1 channel
Sampling rate : 48.0 KHz
Compression mode : Lossy
Stream size : 60.7 MiB (8%)
Alignment : Aligned on interleaves
Interleave, duration : 42 ms (1.00 video frame)
Interleave, preload duration : 504 ms
Writing library : LAME3.99r
Encoding settings : -m m -V 4 -q 0 -lowpass 20.5 -b 96

Скриншот c названием фильма

Скриншоты

If your ratio falls below 0.3, you will not be able to download Torrents! More about the rating.

[erzsebet.pl].t51666.torrent
Torrent: Registered   [ 2017-12-11 02:36 ]

Download .torrent

Download

15 KB

Status: checked
Completed: 16 times
Size: 742 MB
terms.php

#1

11-Dec-2017 01:28

[Profile]  [PM] 
Display posts:    

You cannot post new topics in this forum
You cannot reply to topics in this forum
You cannot edit your posts in this forum
You cannot delete your posts in this forum
You cannot vote in polls in this forum
You cannot attach files in this forum
You can download files in this forum
User agreement
For copyright holders
Advertise on this site

Скачайте на халяву через торрент на трекере erzsebet.pl

!ATTENTION!
The site does not give electronic versions of products, and is engaged only in a collecting and cataloguing of the references sent and published at a forum by our readers. If you are the legal owner of any submitted material and do not wish that the reference to it was in our catalogue, contact us and we shall immediately remove her. Files for an exchange on tracker are given by users of a site, and the administration does not bear the responsibility for their maintenance. The request to not fill in the files protected by copyrights, and also files of the illegal maintenance!