Танец смерти / Slam Dance (Уэйн Уэнг / Wayne Wang) [1987, США, Великобритания, триллер, детектив, HDTVRip] DVO

DL-List and Torrent activity
Size:  1.5 GB   |    Registered:  2 years 10 months   |    Completed:  16 times
Seeders:  3  
 
   
 
 

Max Levien ®

Longevity:
2 years 10 months
Posts:
20374

[Quote] 

Танец смерти / Slam Dance

Страна: США, Великобритания
Жанр: триллер, детектив
Год выпуска: 1987
Продолжительность: 01:35:44
Перевод: Профессиональный (двухголосый закадровый)
Субтитры: нет
Режиссер: Уэйн Уэнг / Wayne Wang
В ролях: Том Халс, Мэри Элизабет Мастрантонио, Вирджиния Мэдсен, Дон Кит Оппер, Адам Ант, Джон Доу, Гарри Дин Стэнтон
Описание: Подпольный мультипликатор Друд — человек, чья жизнь под фанфары развалилась на куски. Он разлучен со своей женой и дочерью, хотя до сих пор воображает, что живет со своей семьей. Друд — это такой тип мужчин, который не допустит, чтобы какие-то пустяки вроде брака встали между веселым времяпровождением или горячей, страстной интригой с красивой и таинственной Йоландой. Но в один «прекрасный день» Йоланду находят мертвой и Друд становится главным подозреваемым…
Доп. информация: Благодарность:
ibanez GRG - за дорожку с переводом AVO
ale_x2008 - за синхрон дорожки
tjapa2000 - за запись исходника по моей просьбе
Релиз
Сэмпл: https://yadi.sk/i/YmO_bKTzi9XD3
Качество видео: HDTVRip [Исходник 1080i]
Формат видео: AVI
Видео: 720x384 (1.88:1), 25 fps, XviD build 50 ~2038 kbps avg, 0.29 bit/pixel
Аудио: 48 kHz, AC3 Dolby Digital, 2/0 (L,R) ch, ~192 kbps

MediaInfo

Танец смерти - Slam Dance (by ale_x2008).avi
Format : AVI
Format/Info : Audio Video Interleave
File size : 1.50 GiB
Duration : 1h 35mn
Overall bit rate : 2 240 Kbps
Movie name : Танец смерти - Slam Dance (by ale_x2008)
Director : by ale_x2008
Writing application : VirtualDubMod 1.5.10.3 (build 2550/release)
Copyright : Edich2
Comment : RuTrcker.org
Video
ID : 0
Format : MPEG-4 Visual
Format profile : Advanced [email protected]
Format settings, BVOP : 1
Format settings, QPel : No
Format settings, GMC : No warppoints
Format settings, Matrix : Default (MPEG)
Codec ID : XVID
Codec ID/Hint : XviD
Duration : 1h 35mn
Bit rate : 2 038 Kbps
Width : 720 pixels
Height : 384 pixels
Display aspect ratio : 1.85:1
Frame rate : 25.000 fps
Color space : YUV
Chroma subsampling : 4:2:0
Bit depth : 8 bits
Scan type : Progressive
Compression mode : Lossy
Bits/(Pixel*Frame) : 0.295
Stream size : 1.36 GiB (91%)
Writing library : XviD 1.2.1 (UTC 2008-12-04)
Audio
ID : 1
Format : AC-3
Format/Info : Audio Coding 3
Mode extension : CM (complete main)
Format settings, Endianness : Big
Codec ID : 2000
Duration : 1h 35mn
Bit rate mode : Constant
Bit rate : 192 Kbps
Channel(s) : 2 channels
Channel positions : Front: L R
Sampling rate : 48.0 KHz
Bit depth : 16 bits
Compression mode : Lossy
Stream size : 131 MiB (9%)
Alignment : Split accross interleaves
Interleave, duration : 40 ms (1.00 video frame)
Interleave, preload duration : 500 ms

If your ratio falls below 0.3, you will not be able to download Torrents! More about the rating.

[erzsebet.pl].t51667.torrent
Torrent: Registered   [ 2017-12-11 02:36 ]

Download .torrent

Download

15 KB

Status: checked
Completed: 16 times
Size: 1.5 GB
terms.php

#1

11-Dec-2017 01:28

[Profile]  [PM] 
Display posts:    

You cannot post new topics in this forum
You cannot reply to topics in this forum
You cannot edit your posts in this forum
You cannot delete your posts in this forum
You cannot vote in polls in this forum
You cannot attach files in this forum
You can download files in this forum
User agreement
For copyright holders
Advertise on this site

Скачайте на халяву через торрент на трекере erzsebet.pl

!ATTENTION!
The site does not give electronic versions of products, and is engaged only in a collecting and cataloguing of the references sent and published at a forum by our readers. If you are the legal owner of any submitted material and do not wish that the reference to it was in our catalogue, contact us and we shall immediately remove her. Files for an exchange on tracker are given by users of a site, and the administration does not bear the responsibility for their maintenance. The request to not fill in the files protected by copyrights, and also files of the illegal maintenance!