Ринг и рок / Удар туловищем / Body Slam (Хэл Нидэм / Hal Needham) [1986, США, комедия, DVDRip] DVO (НТВ+)

DL-List and Torrent activity
Size:  1.42 GB   |    Registered:  2 years 10 months   |    Completed:  16 times
Seeders:  3  
 
   
 
 

Max Levien ®

Longevity:
2 years 10 months
Posts:
20374

[Quote] 

Ринг и рок / Удар туловищем / Body Slam
Страна: США
Жанр: комедия
Год выпуска: 1986
Продолжительность: 01:32:10.
Перевод: Профессиональный (двухголосый закадровый) НТВ+
Субтитры: нет
Режиссер: Хэл Нидэм / Hal Needham
В ролях: Дирк Бенедикт, Таня Робертс, Родди Пайпер, Лу Альбано, Бэрри Гордон, Чарльз Нельсон Рейли, Билли Барти, Джон Эстин, Сэм Фату, Дэни Янссен
Описание: М. Гарри Smilac, музыкальный менеджер, который с трудом привлекает новые таланты и еле-еле организовывает концерты для своей группы. При принятии необходимых мер для кампании по сбору средств, он нанимает профессионального борца..
Доп. информация: Релиз
Сэмпл: https://yadi.sk/i/v0343YPsbezzD
Качество видео: DVDRip [Body.Slam.1986.NTSC.DVD5]
Формат видео: AVI
Видео: 720x400 (1.80:1), 23.976 fps, XviD build 50 ~1998 kbps avg, 0.29 bit/pixel
Аудио: 48 kHz, AC3 Dolby Digital, 2/0 (L,R) ch, ~192 kbps

MediaInfo

Удар туловищем - Body Slam [by Edich2].avi
Format : AVI
Format/Info : Audio Video Interleave
File size : 1.42 GiB
Duration : 1h 32mn
Overall bit rate : 2 200 Kbps
Movie name : Удар туловищем - Body Slam [by Edich2]
Director : Rip by Edich2
Writing application : VirtualDubMod 1.5.10.2 (build 2540/release)
Comment : erzsebet.org
Video
ID : 0
Format : MPEG-4 Visual
Format profile : Advanced [email protected]
Format settings, BVOP : 2
Format settings, QPel : No
Format settings, GMC : No warppoints
Format settings, Matrix : Custom
Codec ID : XVID
Codec ID/Hint : XviD
Duration : 1h 32mn
Bit rate : 1 999 Kbps
Width : 720 pixels
Height : 400 pixels
Display aspect ratio : 16:9
Frame rate : 23.976 fps
Color space : YUV
Chroma subsampling : 4:2:0
Bit depth : 8 bits
Scan type : Progressive
Compression mode : Lossy
Bits/(Pixel*Frame) : 0.289
Stream size : 1.29 GiB (91%)
Writing library : XviD 1.2.1 (UTC 2008-12-04)
Audio
ID : 1
Format : AC-3
Format/Info : Audio Coding 3
Mode extension : CM (complete main)
Format settings, Endianness : Big
Codec ID : 2000
Duration : 1h 32mn
Bit rate mode : Constant
Bit rate : 192 Kbps
Channel(s) : 2 channels
Channel positions : Front: L R
Sampling rate : 48.0 KHz
Bit depth : 16 bits
Compression mode : Lossy
Stream size : 127 MiB (9%)
Alignment : Split accross interleaves
Interleave, duration : 42 ms (1.00 video frame)
Interleave, preload duration : 500 ms

Скриншоты


If your ratio falls below 0.3, you will not be able to download Torrents! More about the rating.

[erzsebet.pl].t51669.torrent
Torrent: Registered   [ 2017-12-11 02:36 ]

Download .torrent

Download

15 KB

Status: checked
Completed: 16 times
Size: 1.42 GB
terms.php

#1

11-Dec-2017 01:28

[Profile]  [PM] 
Display posts:    

You cannot post new topics in this forum
You cannot reply to topics in this forum
You cannot edit your posts in this forum
You cannot delete your posts in this forum
You cannot vote in polls in this forum
You cannot attach files in this forum
You can download files in this forum
User agreement
For copyright holders
Advertise on this site

Скачайте на халяву через торрент на трекере erzsebet.pl

!ATTENTION!
The site does not give electronic versions of products, and is engaged only in a collecting and cataloguing of the references sent and published at a forum by our readers. If you are the legal owner of any submitted material and do not wish that the reference to it was in our catalogue, contact us and we shall immediately remove her. Files for an exchange on tracker are given by users of a site, and the administration does not bear the responsibility for their maintenance. The request to not fill in the files protected by copyrights, and also files of the illegal maintenance!