Чистилище / Purgatory (Эми Артци / Ami Artzi) [1988, ЮАР, Боевик, криминал, DVDRip] AVO Карцев

DL-List and Torrent activity
Size:  753 MB   |    Registered:  2 years 10 months   |    Completed:  16 times
Seeders:  2  
 
   
 
 

Max Levien ®

Longevity:
2 years 10 months
Posts:
20374

[Quote] 

Чистилище / Purgatory
Страна: ЮАР
Жанр: Боевик , криминал
Год выпуска: 1988
Продолжительность: 1:30:49
Перевод: Авторский (одноголосый закадровый) П. Карцев
Субтитры: нет
Режиссер: Эми Артци / Ami Artzi
В ролях: Таня Робертс, Джули Поп, Хэл Орландини, Эдриан Пирс, Дэвид Шервуд, Клер Маршалл
Описание: Обвиненные в преступлении, которого не совершали, Карли и ее подруга Мелани оказываются в тюрьме, получившей название «Чистилище», где девушек заставляют работать проститутками.
Доп. информация: Звук синхронизирован из раздачи tеko
Сэмпл: https://www.sendspace.com/file/aqyhuv
Качество видео: DVDRip
Формат видео: AVI
Видео: XviD MPEG-4 , 544x400 (1.36:1) , 23.976 fps , 957 kbps
Аудио: AC3 , 48 kHz , 192.00 kbps avg , 2/0 (L,R) ch

MediaInfo

Complete name Чистилище 1988.avi
Format : AVI
Format/Info : Audio Video Interleave
File size : 753 MiB
Duration : 1h 30mn
Overall bit rate : 1 159 Kbps
Video
ID : 0
Format : MPEG-4 Visual
Format profile : Advanced [email protected]
Format settings, BVOP : 2
Format settings, QPel : No
Format settings, GMC : No warppoints
Format settings, Matrix : Default (H.263)
Codec ID : XVID
Codec ID/Hint : XviD
Duration : 1h 30mn
Bit rate : 957 Kbps
Width : 544 pixels
Height : 400 pixels
Display aspect ratio : 4:3
Frame rate : 23.976 fps
Color space : YUV
Chroma subsampling : 4:2:0
Bit depth : 8 bits
Scan type : Progressive
Compression mode : Lossy
Bits/(Pixel*Frame) : 0.183
Stream size : 622 MiB (83%)
Writing library : XviD 1.1.0 RC (UTC 2005-11-22)
Audio
ID : 1
Format : AC-3
Format/Info : Audio Coding 3
Mode extension : CM (complete main)
Format settings, Endianness : Big
Codec ID : 2000
Duration : 1h 30mn
Bit rate mode : Constant
Bit rate : 192 Kbps
Channel(s) : 2 channels
Channel positions : Front: L R
Sampling rate : 48.0 KHz
Compression mode : Lossy
Stream size : 125 MiB (17%)
Alignment : Aligned on interleaves
Interleave, duration : 42 ms (1.00 video frame)
Interleave, preload duratio : 512 ms

If your ratio falls below 0.3, you will not be able to download Torrents! More about the rating.

[erzsebet.pl].t51670.torrent
Torrent: Registered   [ 2017-12-11 02:36 ]

Download .torrent

Download

15 KB

Status: checked
Completed: 16 times
Size: 753 MB
terms.php

#1

11-Dec-2017 01:28

[Profile]  [PM] 
Display posts:    

You cannot post new topics in this forum
You cannot reply to topics in this forum
You cannot edit your posts in this forum
You cannot delete your posts in this forum
You cannot vote in polls in this forum
You cannot attach files in this forum
You can download files in this forum
User agreement
For copyright holders
Advertise on this site

Скачайте на халяву через торрент на трекере erzsebet.pl

!ATTENTION!
The site does not give electronic versions of products, and is engaged only in a collecting and cataloguing of the references sent and published at a forum by our readers. If you are the legal owner of any submitted material and do not wish that the reference to it was in our catalogue, contact us and we shall immediately remove her. Files for an exchange on tracker are given by users of a site, and the administration does not bear the responsibility for their maintenance. The request to not fill in the files protected by copyrights, and also files of the illegal maintenance!