Специальный агент Хаммер / Hammerhead / Special Agent Hammer (Энцо Кастеллари / Enzo G. Castellari) [1987, Италия, США, боевик, криминал, DVDRip] VO (Алексей Багичев)

DL-List and Torrent activity
Size:  750 MB   |    Registered:  2 years 10 months   |    Completed:  16 times
Seeders:  2  
 
   
 
 

Max Levien ®

Longevity:
2 years 10 months
Posts:
20374

[Quote] 

Специальный агент Хаммер / Hammerhead / Special Agent Hammer
Страна: Италия, США
Жанр: боевик, криминал
Год выпуска: 1987
Продолжительность: 01:33:11
Перевод: Одноголосый закадровый Алексей Багичев
Субтитры: нет
Режиссер: Энцо Кастеллари / Enzo G. Castellari
В ролях: Дэниэл Грин, Фрэнк Загарино, Мелони Роджерс, Хорхе Гил
Описание: К американскому полицейскому Хаммеру приезжает старый друг (они вместе были наемниками в молодости) с Ямайки, и сообщает, что он влип там в крупные неприятности... и передает ключ, но никаких подробностей дать не успевает - его убивают. Начальство просит его, как лицо заинтересованное, держаться подальше от расследования... а еще лучше - взять отпуск и уехать отдохнуть куда подальше... А что может быть лучше, чем отдых на красивом тропическом острове? вот и Хаммер так подумал, и поехал... на Ямайк, совместить, так сказать, приятное с полезным- и расслабиться, и навести немного шороху в местном "осином гнезде"...
Примечание : -- Совместный релиз AsiaFan и VideoDemons. -- За появление релиза Спасибо - смерч11, ivan ser, bvedargh, killer snowman, Sss, sdv7, Сан Саныч, Der eiserne Wolf, AlexNever, friend007, lotasfan, arwin . За работу со звуком отдельное Спасибо abigail80
Сэмпл: http://multi-up.com/1128599
Качество видео: DVDRip (Исходник DVD-Video)
Формат видео: AVI
Видео: XviD 73, 640x480, (4:3), 25,000 fps, 924 Кбит/с
Аудио: Русский (АС3, 2 ch (Front: L R), 48,0 KHz, 192 Kbps)

MediaInfo

Общее
Полное имя : F:\Видеофильмы\В и д е о\Специальный агент Хаммер (боевик криминал 1987 год).avi
Формат : AVI
Формат/Информация : Audio Video Interleave
Размер файла : 750 Мбайт
Продолжительность : 1 ч. 33 м.
Общий поток : 1125 Кбит/сек
Программа кодирования : VirtualDubMod 1.5.10.3 | www.virtualdub-fr.org || (build 2550/release)
Библиотека кодирования : VirtualDubMod build 2550/release
Видео
Идентификатор : 0
Формат : MPEG-4 Visual
Профиль формата : Advanced [email protected]
Параметр BVOP формата : 2
Параметр QPel формата : Нет
Параметр GMC формата : Без точки перехода
Параметр матрицы формата : Выборочная
Идентификатор кодека : XVID
Идентификатор кодека/Подсказка : XviD
Продолжительность : 1 ч. 33 м.
Битрейт : 924 Кбит/сек
Ширина : 640 пикселей
Высота : 480 пикселей
Соотношение сторон : 4:3
Частота кадров : 25,000 кадров/сек
Цветовое пространство : YUV
Субдискретизация насыщенности : 4:2:0
Битовая глубина : 8 бит
Тип развёртки : Прогрессивная
Метод сжатия : С потерями
Бит/(Пиксели*Кадры) : 0.120
Размер потока : 616 Мбайт (82%)
Библиотека кодирования : XviD 73
Аудио
Идентификатор : 1
Формат : AC-3
Формат/Информация : Audio Coding 3
Расширение режима : CM (complete main)
Параметр Endianness формата : Big
Идентификатор кодека : 2000
Продолжительность : 1 ч. 33 м.
Вид битрейта : Постоянный
Битрейт : 192 Кбит/сек
Каналы : 2 канала
Расположение каналов : Front: L R
Частота : 48,0 КГц
Частота кадров : 31,250 кадров/сек (1536 spf)
Метод сжатия : С потерями
Размер потока : 128 Мбайт (17%)
Выравнивание : Разделение по промежуткам
Продолжительность промежутка : 40 мс. (1,00 видеокадр)
Время предзагрузки промежутка : 500 мс.

Скриншот c названием фильма

Скриншоты

If your ratio falls below 0.3, you will not be able to download Torrents! More about the rating.

[erzsebet.pl].t51672.torrent
Torrent: Registered   [ 2017-12-11 02:36 ]

Download .torrent

Download

15 KB

Status: checked
Completed: 16 times
Size: 750 MB
terms.php

#1

11-Dec-2017 01:28

[Profile]  [PM] 
Display posts:    

You cannot post new topics in this forum
You cannot reply to topics in this forum
You cannot edit your posts in this forum
You cannot delete your posts in this forum
You cannot vote in polls in this forum
You cannot attach files in this forum
You can download files in this forum
User agreement
For copyright holders
Advertise on this site

Скачайте на халяву через торрент на трекере erzsebet.pl

!ATTENTION!
The site does not give electronic versions of products, and is engaged only in a collecting and cataloguing of the references sent and published at a forum by our readers. If you are the legal owner of any submitted material and do not wish that the reference to it was in our catalogue, contact us and we shall immediately remove her. Files for an exchange on tracker are given by users of a site, and the administration does not bear the responsibility for their maintenance. The request to not fill in the files protected by copyrights, and also files of the illegal maintenance!