Геркулес в копях царя Соломона / Мацист в рудниках Соломона / Maciste nelle miniere di re Salomone / Maciste in King Solomon's Mines (Пьеро Реньоли / Piero Regnoli) [1964, Италия, приключения, боевик, фэнтези, VHSRip] VO Переводчик не опознан

DL-List and Torrent activity
Size:  2.82 GB   |    Registered:  2 years 10 months   |    Completed:  16 times
Seeders:  2  
 
   
 
 

Max Levien ®

Longevity:
2 years 10 months
Posts:
20374

[Quote] 

Геркулес в копях царя Соломона / Мацист в рудниках Соломона / Maciste nelle miniere di re Salomone / Maciste in King Solomon's Mines / Maciste im Reich von König Salomon / Maciste dans les mines du roi Salomon / Maciste en las minas del rey Salomón
Страна: Италия
Жанр: приключения, боевик, фентези
Год выпуска: 1964
Продолжительность: 01:29:11
Перевод: Одноголосый закадровый Доп. инфо о переводе Переводчик не опознан
Субтитры: нет
Режиссер: Пьеро Реньоли / Piero Regnoli
В ролях: Рег Парк, Вандиса Гуида, Элеонора Бьянки
Описание: Геркулес прибывает в город Зимба для освобождения золотоискателей, порабощенных злой королевой Фазирой.

РЕЛИЗ ГРУППЫ
Сэмпл: http://narod.ru/disk/40227217001/%D0%A1%D0%B5%D0%BC%D0%BF%D0%BB.vob.html
Качество видео: VHSRip
Формат видео: DVD Video
Видео: PAL 4:3 (720x576) VBR
Аудио: Russian (Dolby AC3, 256 Kbps, 2 ch)

DVDInfo

Title:
Size: 2.82 Gb ( 2 960 168 KBytes ) - DVD-5
Enabled regions: 1, 2, 3, 4, 5, 6, 7, 8
VTS_01 :
Play Length: 01:29:10+00:00:01
Video: PAL 4:3 (720x576) VBR
Audio:
Not specified (Dolby AC3, 2 ch)
Subtitles:
Not specified
Menu Video:
PAL 4:3 (720x576) VBR
Menu Subtitles:
Not specified
Menu Language Unit :
Root Menu

MediaInfo

General
Complete name : E:\DVD\Maciste nelle miniere di re Salomone\VIDEO_TS\VTS_01_1.VOB
Format : MPEG-PS
File size : 1 024 MiB
Duration : 32mn 51s
Overall bit rate : 4 357 Kbps
Video
ID : 224 (0xE0)
Format : MPEG Video
Format version : Version 2
Format profile : [email protected]
Format settings, BVOP : Yes
Format settings, Matrix : Default
Format settings, GOP : M=3, N=12
Duration : 32mn 51s
Bit rate mode : Variable
Bit rate : 4 015 Kbps
Nominal bit rate : 8 000 Kbps
Width : 720 pixels
Height : 576 pixels
Display aspect ratio : 4:3
Frame rate : 25.000 fps
Standard : PAL
Color space : YUV
Chroma subsampling : 4:2:0
Bit depth : 8 bits
Scan type : Interlaced
Scan order : Top Field First
Bits/(Pixel*Frame) : 0.387
Stream size : 943 MiB (92%)
Audio
ID : 128 (0x80)
Format : AC-3
Format/Info : Audio Coding 3
Mode extension : CM (complete main)
Duration : 32mn 50s
Bit rate mode : Constant
Bit rate : 256 Kbps
Channel(s) : 2 channels
Channel positions : Front: L R
Sampling rate : 48.0 KHz
Bit depth : 16 bits
Video delay : -80ms
Stream size : 60.1 MiB (6%)
Menu

Постеры

Скриншот c названием фильма

If your ratio falls below 0.3, you will not be able to download Torrents! More about the rating.

[erzsebet.pl].t51674.torrent
Torrent: Registered   [ 2017-12-11 02:36 ]

Download .torrent

Download

114 KB

Status: checked
Completed: 16 times
Size: 2.82 GB
terms.php

#1

11-Dec-2017 01:28

[Profile]  [PM] 
Display posts:    

You cannot post new topics in this forum
You cannot reply to topics in this forum
You cannot edit your posts in this forum
You cannot delete your posts in this forum
You cannot vote in polls in this forum
You cannot attach files in this forum
You can download files in this forum
User agreement
For copyright holders
Advertise on this site

Скачайте на халяву через торрент на трекере erzsebet.pl

!ATTENTION!
The site does not give electronic versions of products, and is engaged only in a collecting and cataloguing of the references sent and published at a forum by our readers. If you are the legal owner of any submitted material and do not wish that the reference to it was in our catalogue, contact us and we shall immediately remove her. Files for an exchange on tracker are given by users of a site, and the administration does not bear the responsibility for their maintenance. The request to not fill in the files protected by copyrights, and also files of the illegal maintenance!