Миссия убивать / Убийственное задание / Mission Kill (Дэвид Уинтерс / David Winters) [1986, США, боевик, драма, криминал, приключения, DVDRip] VO Алексей Багичев

DL-List and Torrent activity
Size:  745 MB   |    Registered:  2 years 10 months   |    Completed:  16 times
Seeders:  3  
 
   
 
 

Max Levien ®

Longevity:
2 years 10 months
Posts:
20374

[Quote] 

Миссия убивать / Убийственное задание / Mission Kill
Страна: США
Жанр: боевик, драма, криминал, приключения.
Год выпуска: 1986
Продолжительность: 01:36:15
Перевод: Одноголосый закадровый Алексей Багичев
Субтитры: нет
Режиссер: Дэвид Уинтерс / David Winters
В ролях: Роберт Гинти, Мерет Ван Камп, Кэмерон Митчелл, Оливия Д`Або, Генри Дарроу, Брук Банди, Дэвид Кауфман, Сэнди Барон, Клемент Сейнт-Джордж, Эдуардо Лопез Рохас, Хорхе Рейносо, Хуан Игнасио Аранда, Хорхе Зепеда, Люк Уолтер, Луис Контрерас
Описание: Бывший спецназовец армии США, давно ушедший в мирскую жизнь, оказывается вновь втянутым в гущу боевых событий. Ему придется вновь применить боевые навыки и прийти на помощь партизанам, чтобы спасти жизни мирных людей а также заложников, от кровавых рук военных, орудующих в джунглях Бразилии....
Примечание : -- Совместный релиз AsiaFan и VideoDemons. За появление релиза Спасибо - смерч11, Сан Саныч, Der eiserne Wolf, ivan ser, AlexNever, Arias, bvedargh, koreetz, Godfrey_2000, zenya_1985, arwin, Sss, sdv7, oxyman
Сэмпл: http://multi-up.com/1128252
Качество видео: DVDRip (Исходник DVD-Video)
Формат видео: AVI
Видео: XviD 73, 608x464, (4:3), 23,976 fps, 881 Кбит/с
Аудио: Русский (АС3, 2 ch (Front: L R), 48,0 KHz, 192 Kbps)

MediaInfo

Общее
Полное имя : F:\Видеофильмы\В и д е о\Миссия убивать (боевик, драма, криминал, приключения 1986 год).avi
Формат : AVI
Формат/Информация : Audio Video Interleave
Размер файла : 745 Мбайт
Продолжительность : 1 ч. 36 м.
Общий поток : 1083 Кбит/сек
Программа кодирования : VirtualDubMod 1.5.10.3 | www.virtualdub-fr.org || (build 2550/release)
Библиотека кодирования : VirtualDubMod build 2550/release
Видео
Идентификатор : 0
Формат : MPEG-4 Visual
Профиль формата : Advanced [email protected]
Параметр BVOP формата : 2
Параметр QPel формата : Нет
Параметр GMC формата : Без точки перехода
Параметр матрицы формата : Выборочная
Идентификатор кодека : XVID
Идентификатор кодека/Подсказка : XviD
Продолжительность : 1 ч. 36 м.
Битрейт : 881 Кбит/сек
Ширина : 608 пикселей
Высота : 464 пикселя
Соотношение сторон : 4:3
Частота кадров : 23,976 (24000/1001) кадра/сек
Цветовое пространство : YUV
Субдискретизация насыщенности : 4:2:0
Битовая глубина : 8 бит
Тип развёртки : Прогрессивная
Метод сжатия : С потерями
Бит/(Пиксели*Кадры) : 0.130
Размер потока : 607 Мбайт (81%)
Библиотека кодирования : XviD 73
Аудио
Идентификатор : 1
Формат : AC-3
Формат/Информация : Audio Coding 3
Расширение режима : CM (complete main)
Параметр Endianness формата : Big
Идентификатор кодека : 2000
Продолжительность : 1 ч. 36 м.
Вид битрейта : Постоянный
Битрейт : 192 Кбит/сек
Каналы : 2 канала
Расположение каналов : Front: L R
Частота : 48,0 КГц
Частота кадров : 31,250 кадров/сек (1536 spf)
Метод сжатия : С потерями
Размер потока : 132 Мбайт (18%)
Выравнивание : Разделение по промежуткам
Продолжительность промежутка : 42 мс. (1,00 видеокадр)
Время предзагрузки промежутка : 500 мс.

Скриншот c названием фильма

Скриншоты

If your ratio falls below 0.3, you will not be able to download Torrents! More about the rating.

[erzsebet.pl].t51675.torrent
Torrent: Registered   [ 2017-12-11 02:36 ]

Download .torrent

Download

15 KB

Status: checked
Completed: 16 times
Size: 745 MB
terms.php

#1

11-Dec-2017 01:28

[Profile]  [PM] 
Display posts:    

You cannot post new topics in this forum
You cannot reply to topics in this forum
You cannot edit your posts in this forum
You cannot delete your posts in this forum
You cannot vote in polls in this forum
You cannot attach files in this forum
You can download files in this forum
User agreement
For copyright holders
Advertise on this site

Скачайте на халяву через торрент на трекере erzsebet.pl

!ATTENTION!
The site does not give electronic versions of products, and is engaged only in a collecting and cataloguing of the references sent and published at a forum by our readers. If you are the legal owner of any submitted material and do not wish that the reference to it was in our catalogue, contact us and we shall immediately remove her. Files for an exchange on tracker are given by users of a site, and the administration does not bear the responsibility for their maintenance. The request to not fill in the files protected by copyrights, and also files of the illegal maintenance!