Берег москитов / The Mosquito Coast (Питер Уир / Peter Weir) [1986, США, приключение, драма, триллер, DVDRip] AVO + original + sub

DL-List and Torrent activity
Size:  1.96 GB   |    Registered:  2 years 10 months   |    Completed:  16 times
Seeders:  2  
 
   
 
 

Max Levien ®

Longevity:
2 years 10 months
Posts:
20374

[Quote] 

Берег москитов
The Mosquito Coast
* DVDRip на 780 Mb
Год выпуска: 1986
Страна: США
Жанр: приключение, драма, триллер
Продолжительность: 01:58:43
Перевод: авторский одноголосый закадровый (Гаврилов)
Субтитры: английские
http://www.imdb.com/title/tt0091557/
Режиссер: Питер Уир /Peter Weir/ ("Пикник у Висячей скалы / Picnic at Hanging Rock", "Последняя волна / The Last wave")
Сценарий: Пол Шрёдер /Paul Schrader/ по роману Пола Теру /Paul Theroux/
Оригинальная музыка: Морис Жарр /Maurice Jarre/ - (mp3, 320)
В главных ролях:
Харрисон Форд /Harrison Ford/, Хелен Миррен /Helen Mirren/, Ривер Феникс /River Phoenix/, Конрад Робертс, Андре Грегори, Марта Плимптон, Дик О`Нейлл, Майкл Роджерс, Хилари Гордон
Описание:
Элли Фокс обуреваем одной-единственной мечтой: бросить все и убежать с семьей куда-нибудь в джунгли, в первозданный мир, подальше от развращающего влияния цивилизации. Вместе с женой и детьми он садится на корабль, следующий к Берегу Москитов. Однако в джунглях Центральной Америки задуманная утопия Фокса превращается в опасное наваждение, а поиски рая сменяются жестокой борьбой за выживание.

poster

минутный СЭМПЛ - 21,5 Mb
Качество: DVDRip
Формат: AVI
Источник: DVD5
Видео кодек: XviD
Аудио кодек: AC3
Видео: 23.976 кадр/сек (720x528), битрейт 1968 Кбит/сек, 0.216 бит/пиксель
Аудио: Russian (AC3, 2 ch), English (AC3, 2 ch),
Audio #1: AC3, 2 ch, 192 Kbps, 48,0 КГц - русский авторский одноголосый закадровый - (Гаврилов)
Audio #2: AC3, 2 ch, 192 Kbps, 48,0 КГц - английский оригинал

Субтитры: английские (SRT) - отключаемые, отдельным файлом

скриншоты 5 штук





скриншоты 5 штук





MediaInfo

Код:Format : AVI
Format/Info : Audio Video Interleave
File size : 1.96 GiB
Duration : 1h 58mn
Overall bit rate : 2 366 Kbps
Video
ID : 0
Format : MPEG-4 Visual
Format profile : [email protected]
Format settings, BVOP : Yes
Format settings, QPel : No
Format settings, GMC : No warppoints
Format settings, Matrix : Default (MPEG)
Muxing mode : Packed bitstream
Codec ID : XVID
Codec ID/Hint : XviD
Duration : 1h 58mn
Bit rate : 1 968 Kbps
Width : 720 pixels
Height : 528 pixels
Display aspect ratio : 4:3
Frame rate : 23.976 fps
Resolution : 24 bits
Colorimetry : 4:2:0
Scan type : Progressive
Bits/(Pixel*Frame) : 0.216
Stream size : 1.63 GiB (83%)
Writing library : XviD 1.2.0.dev47 (UTC 2006-11-01)
Audio #1
ID : 1
Format : AC-3
Format/Info : Audio Coding 3
Codec ID : 2000
Duration : 1h 58mn
Bit rate mode : Constant
Bit rate : 192 Kbps
Channel(s) : 2 channels
Channel positions : L R
Sampling rate : 48.0 KHz
Stream size : 163 MiB (8%)
Alignment : Split accross interleaves
Interleave, duration : 42 ms (1.00 video frame)
Interleave, preload duration : 500 ms
Audio #2
ID : 2
Format : AC-3
Format/Info : Audio Coding 3
Format profile : Dolby Digital
Codec ID : 2000
Duration : 1h 58mn
Bit rate mode : Constant
Bit rate : 192 Kbps
Channel(s) : 2 channels
Channel positions : L R
Sampling rate : 48.0 KHz
Stream size : 163 MiB (8%)
Alignment : Split accross interleaves
Interleave, duration : 42 ms (1.00 video frame)
Interleave, preload duration : 500 ms

If your ratio falls below 0.3, you will not be able to download Torrents! More about the rating.

[erzsebet.pl].t51678.torrent
Torrent: Registered   [ 2017-12-11 02:36 ]

Download .torrent

Download

20 KB

Status: checked
Completed: 16 times
Size: 1.96 GB
terms.php

#1

11-Dec-2017 01:28

[Profile]  [PM] 
Display posts:    

You cannot post new topics in this forum
You cannot reply to topics in this forum
You cannot edit your posts in this forum
You cannot delete your posts in this forum
You cannot vote in polls in this forum
You cannot attach files in this forum
You can download files in this forum
User agreement
For copyright holders
Advertise on this site

Скачайте на халяву через торрент на трекере erzsebet.pl

!ATTENTION!
The site does not give electronic versions of products, and is engaged only in a collecting and cataloguing of the references sent and published at a forum by our readers. If you are the legal owner of any submitted material and do not wish that the reference to it was in our catalogue, contact us and we shall immediately remove her. Files for an exchange on tracker are given by users of a site, and the administration does not bear the responsibility for their maintenance. The request to not fill in the files protected by copyrights, and also files of the illegal maintenance!