Что случилось прошлой ночью / Что случилось вчера ночью / About Last Night... (Эдвард Цвик / Edward Zwick) [1986, США, драма, мелодрама, комедия, HDRip] MVO (1-ый канал) + DVO + DUB (Варус-Видео) + AVO (Володарский) + Sub Eng + Original Eng

DL-List and Torrent activity
Size:  2.64 GB   |    Registered:  2 years 10 months   |    Completed:  16 times
Seeders:  3  
 
   
 
 

Max Levien ®

Longevity:
2 years 10 months
Posts:
20374

[Quote] 

Что случилось прошлой ночью / Что случилось вчера ночью / About Last Night...- Страна: США
Жанр: драма, мелодрама, комедия
Год выпуска: 1986
Продолжительность: 01:53:12
Перевод 1: Профессиональный (многоголосый закадровый) - 1-канал - спасибо Diablo
Перевод 2: Профессиональный (двухголосый закадровый) - спасибо Boevoy_Svintus
Перевод 3: Профессиональный (дублированный) - Варус-Видео - спасибо Fikaloid, alex7691, smit009
Перевод 4: Авторский (одноголосый закадровый) - Володарский (отдельно)
Субтитры: английские
Оригинальная аудиодорожка: английский (отдельно)-Режиссер: Эдвард Цвик / Edward Zwick-В ролях: Роб Лоу, Деми Мур, Джеймс Белуши, Элизабет Перкинс, Джордж ДиЧенцо, Майкл Олдредж, Робин Томас Гроссман, Донна Гиббонс, Меган Маллалли, Патриция Дафф ...
Описание: Дэнни наслаждается молодостью, привольной жизнью и случайными связями. Он не верит в настоящее чувство и нис кем не остается дольше одной ночи. Встреча с Дебби была похожа на тысячи других — с одним исключением: на следующий день Дэнни захотел увидеть девушку снова, а вскоре предложил ей жить вместе. Но современный Казанова не был создан для долгих и прочных отношений. И тогда он оставил Дебби, не подозревая, что совершает роковую ошибку…-Доп. информация: КиноПоиск: 7.009 (369) | IMDb: 6.00 (9516) | Сэмпл | Multi-Up-Качество видео: HDRip [Источник] - спасибо uvm2006
Формат видео: AVI
Видео: 720x384 (1.88:1), 23.976 fps, XviD build 73 ~2180 kbps avg, 0.33 bit/pixel-Аудио 1: 48 kHz, AC3 Dolby Digital, 2/0 (L,R) ch, ~192 kbps MVO (1-ый канал)
Аудио 2: 48 kHz, AC3 Dolby Digital, 2/0 (L,R) ch, ~192 kbps DVO
Аудио 3: 48 kHz, AC3 Dolby Digital, 2/0 (L,R) ch, ~192 kbps DUB (Варус-Видео)
Аудио 4: 48 kHz, AC3 Dolby Digital, 2/0 (L,R) ch, ~192 kbps ENG - отдельно
Аудио 5: 48 kHz, AC3 Dolby Digital, 3/2 (L,C,R,l,r) + LFE ch, ~384 kbps AVO (Володарский) - отдельно
Формат субтитров: softsub (SRT)

Знаете ли вы, что...

Фильм поставлен по вышедшей в 1974 году пьесе Дэвида Мэмета под названием «Sexual Perversity in Chicago» — «Сексуальная извращённость в Чикаго». Первоначально так должен был называться и фильм, однако многие крупные газеты и телеканалы категорически отказались рекламировать картину с таким названием.
На роль Дебби, которую сыграла Деми Мур, пробовалась Фиби Кейтс.
Первоначально роли в фильме должны были сыграть Дэн Эйкройд и Джон Белуши. Однако Джон Белуши спросил совета у своего брата Джеймса Белуши, который ранее играл аналогичную роль в пьесе Дэвида Мэмета. Тот возразил против его участия в проекте, объяснив это нежеланием того, чтобы братьев сравнивали друг с другом.

MediaInfo

Format : AVI
Format/Info : Audio Video Interleave
Format profile : OpenDML
File size : 2.19 GiB
Duration : 1h 53mn
Overall bit rate : 2 763 Kbps
Movie name : Что случилось прошлой ночью
Director : derdevil13
Writing application : VirtualDubMod 1.5.10.3 | www.virtualdub-fr.org || (build 2550/release)
Video
ID : 0
Format : MPEG-4 Visual
Format profile : Advanced [email protected]
Format settings, BVOP : 2
Format settings, QPel : No
Format settings, GMC : No warppoints
Format settings, Matrix : Custom
Codec ID : XVID
Codec ID/Hint : XviD
Duration : 1h 53mn
Bit rate : 2 163 Kbps
Width : 720 pixels
Height : 384 pixels
Display aspect ratio : 1.85:1
Frame rate : 23.976 fps
Color space : YUV
Chroma subsampling : 4:2:0
Bit depth : 8 bits
Scan type : Progressive
Compression mode : Lossy
Bits/(Pixel*Frame) : 0.326
Stream size : 1.71 GiB (78%)
Writing library : XviD 73
Audio #1
ID : 1
Format : AC-3
Format/Info : Audio Coding 3
Mode extension : CM (complete main)
Format settings, Endianness : Big
Codec ID : 2000
Duration : 1h 53mn
Bit rate mode : Constant
Bit rate : 192 Kbps
Channel(s) : 2 channels
Channel positions : Front: L R
Sampling rate : 48.0 KHz
Bit depth : 16 bits
Compression mode : Lossy
Stream size : 155 MiB (7%)
Alignment : Split accross interleaves
Interleave, duration : 42 ms (1.00 video frame)
Interleave, preload duration : 500 ms
Audio #2
ID : 2
Format : AC-3
Format/Info : Audio Coding 3
Mode extension : CM (complete main)
Format settings, Endianness : Big
Codec ID : 2000
Duration : 1h 53mn
Bit rate mode : Constant
Bit rate : 192 Kbps
Channel(s) : 2 channels
Channel positions : Front: L R
Sampling rate : 48.0 KHz
Bit depth : 16 bits
Compression mode : Lossy
Stream size : 155 MiB (7%)
Alignment : Split accross interleaves
Interleave, duration : 42 ms (1.00 video frame)
Interleave, preload duration : 500 ms
Audio #3
ID : 3
Format : AC-3
Format/Info : Audio Coding 3
Mode extension : CM (complete main)
Format settings, Endianness : Big
Codec ID : 2000
Duration : 1h 53mn
Bit rate mode : Constant
Bit rate : 192 Kbps
Channel(s) : 2 channels
Channel positions : Front: L R
Sampling rate : 48.0 KHz
Bit depth : 16 bits
Compression mode : Lossy
Stream size : 155 MiB (7%)
Alignment : Split accross interleaves
Interleave, duration : 42 ms (1.00 video frame)
Interleave, preload duration : 500 ms

Скриншоты

Удаление / добавление звуковой(ых) дорожки(ек) и / или субтитров в контейнер AVI

Программы для работы с контейнерами --- VirtualDub (AVI)
http://erzsebet.org/forum/viewtopic.php?t=2660545

Как подключить альтернативную (внешнюю) звуковую дорожку к видео?

http://erzsebet.org/forum/viewtopic.php?t=2403326
Пожалуйста, оставайтесь на раздаче как можно дольше-

If your ratio falls below 0.3, you will not be able to download Torrents! More about the rating.

[erzsebet.pl].t51688.torrent
Torrent: Registered   [ 2017-12-11 02:36 ]

Download .torrent

Download

14 KB

Status: checked
Completed: 16 times
Size: 2.64 GB
terms.php

#1

11-Dec-2017 01:28

[Profile]  [PM] 
Display posts:    

You cannot post new topics in this forum
You cannot reply to topics in this forum
You cannot edit your posts in this forum
You cannot delete your posts in this forum
You cannot vote in polls in this forum
You cannot attach files in this forum
You can download files in this forum
User agreement
For copyright holders
Advertise on this site

Скачайте на халяву через торрент на трекере erzsebet.pl

!ATTENTION!
The site does not give electronic versions of products, and is engaged only in a collecting and cataloguing of the references sent and published at a forum by our readers. If you are the legal owner of any submitted material and do not wish that the reference to it was in our catalogue, contact us and we shall immediately remove her. Files for an exchange on tracker are given by users of a site, and the administration does not bear the responsibility for their maintenance. The request to not fill in the files protected by copyrights, and also files of the illegal maintenance!