Полицейская собака К-9 / К-9: Собачья работа / K-9 (Род Дэниэл / Rod Daniel) [1989, США, боевик, комедия, криминальный, Telesync] [Российская прокатная копия] [Fullscreen] DVO

DL-List and Torrent activity
Size:  3.96 GB   |    Registered:  2 years 10 months   |    Completed:  16 times
Seeders:  2  
 
   
 
 

Max Levien ®

Longevity:
2 years 10 months
Posts:
20374

[Quote] 

Полицейская собака К-9 / К-9: Собачья работа / K-9 [Российская прокатная копия]- Страна: США
Жанр: боевик, комедия, криминальный
Год выпуска: 1989
Продолжительность: 01:37:27-Перевод: Профессиональный (двухголосый закадровый)
Субтитры: нет-Режиссер: Род Дэниэл / Rod Daniel
В ролях: Джеймс Белуши, Мэл Харрис, Кевин Тай, Джеймс Хэнди, Эд О’Нил, Джерри Ли, Дэниэл Дэвис, Коттер Смит, Джон Снайдер, Прюитт, Тэйлор Винс- | Релиз: -Описание: Веселый полицейский-выдумщик Майкл Дули попал в беду: его пытается убить известный наркодилер за то, что тот все время вмешивается в бизнес. Друг полицейского дает ему собаку по имени Джерри Ли, специально натасканную на запах наркотиков. С помощью пса Майкл надеется поймать преступника и разоблачить его, но не так все просто.
У Джерри Ли свой характер и он работает только когда пожелает. К тому же собака принимает радостное участие в поломке машины Майкла, разгроме дома и его личной жизни…-Семпл: http://sendfile.su/1265961-Тип релиза: Telesync
Контейнер: MPG
Видео: 720x576 (4:3) @ 768x576, 25.000 fps, MPEG-2 Video, ~5448 Kbps, 0.525 bits/pixel
Аудио: Русский, 48.0 KHz, AC3, 2 ch, 256 Kbps

MediaInfo

General
Complete name : Полицейская собака К-9 DVO.mpg
Format : MPEG-PS
File size : 3.96 GiB
Duration : 1 h 37 min
Overall bit rate mode : Variable
Overall bit rate : 5 820 kb/s
Video
ID : 224 (0xE0)
Format : MPEG Video
Format version : Version 2
Format profile : [email protected]
Format settings, BVOP : Yes
Format settings, Matrix : Default
Format settings, GOP : N=12
Format settings, picture structure : Frame
Duration : 1 h 37 min
Bit rate mode : Variable
Bit rate : 5 448 kb/s
Maximum bit rate : 9 400 kb/s
Width : 720 pixels
Height : 576 pixels
Display aspect ratio : 4:3
Frame rate : 25.000 FPS
Standard : PAL
Color space : YUV
Chroma subsampling : 4:2:0
Bit depth : 8 bits
Scan type : Interlaced
Scan order : Top Field First
Compression mode : Lossy
Bits/(Pixel*Frame) : 0.526
Time code of first frame : 00:00:00:00
Time code source : Group of pictures header
GOP, Open/Closed : Closed
Stream size : 3.71 GiB (94%)
Color primaries : BT.601 PAL
Transfer characteristics : BT.470 System B, BT.470 System G
Matrix coefficients : BT.601
Audio
ID : 189 (0xBD)-128 (0x80)
Format : AC-3
Format/Info : Audio Coding 3
Mode extension : CM (complete main)
Format settings, Endianness : Big
Muxing mode : DVD-Video
Duration : 1 h 37 min
Bit rate mode : Constant
Bit rate : 256 kb/s
Channel(s) : 2 channels
Channel positions : Front: L R
Sampling rate : 48.0 kHz
Frame rate : 31.250 FPS (1536 spf)
Compression mode : Lossy
Stream size : 178 MiB (4%)

Скриншоты

If your ratio falls below 0.3, you will not be able to download Torrents! More about the rating.

[erzsebet.pl].t51691.torrent
Torrent: Registered   [ 2017-12-11 02:36 ]

Download .torrent

Download

20 KB

Status: checked
Completed: 16 times
Size: 3.96 GB
terms.php

#1

11-Dec-2017 01:28

[Profile]  [PM] 
Display posts:    

You cannot post new topics in this forum
You cannot reply to topics in this forum
You cannot edit your posts in this forum
You cannot delete your posts in this forum
You cannot vote in polls in this forum
You cannot attach files in this forum
You can download files in this forum
User agreement
For copyright holders
Advertise on this site

Скачайте на халяву через торрент на трекере erzsebet.pl

!ATTENTION!
The site does not give electronic versions of products, and is engaged only in a collecting and cataloguing of the references sent and published at a forum by our readers. If you are the legal owner of any submitted material and do not wish that the reference to it was in our catalogue, contact us and we shall immediately remove her. Files for an exchange on tracker are given by users of a site, and the administration does not bear the responsibility for their maintenance. The request to not fill in the files protected by copyrights, and also files of the illegal maintenance!