Гротеск / Grotesque / Grotesk / Blodig Alvor (Джо Торнаторе / Joe Tornatore) [1988, США, Боевик, Приключения, Ужасы, DVDRip] AVO (Антон Алексеев)

DL-List and Torrent activity
Size:  1.4 GB   |    Registered:  2 years 10 months   |    Completed:  16 times
Seeders:  2  
 
   
 
 

Max Levien ®

Longevity:
2 years 10 months
Posts:
20374

[Quote] 

Гротеск / Grotesque / Grotesk / Blodig Alvor
Страна: США
Жанр: Боевик, Приключения, Ужасы
Год выпуска: 1988
Продолжительность: 01:29:08
Перевод: Авторский (одноголосый закадровый) Антон Алексеев
Субтитры: нет
Режиссер: Джо Торнаторе / Joe Tornatore
В ролях: Роберт З’Дар, Линда Блэр, Тэб Хантер, Донна Уилкс, Брэд Уилсон, Нельс Паттен, Шэрон Хьюз, Мишель Бенсуссан, Гай Стокуэлл, Чарльз Диркоп, Чак Морелл
Описание: Аннотация от alenavova:
Смесь набивших оскомину тем американского коммерческого кино: банда озверевших убийц, насилующая работников киностудии; монстр - добрый урод, - которого скрывают родственники в потайной комнате, невинные молодые женщины, приехавшие на уик-энд в захолустный дом. Они приводят в дом родителей (отец - специалист по киномаскам) хвост из банды панков, готовых на любое преступление. Добрый урод, мстя, небрежно сворачивает голову нескольким зазевавшимся панкам. Приехавшая полиция считает, что урод виноват во всех убийствах.
Доп. информация: Дорожка с А. Алексеевым синхронизирована, ремастирована и наложена ale_x2008 при помощи Adobe Audition, Sony Vegas и VirtualDubMod.
За оцифрованную с VHS дорожку благодарим - alenavova

Видеоряд мой.
Релиз-первоисходник
Сэмпл: https://yadi.sk/i/X44DyoFpdaQSc
Качество видео: DVDRip
Формат видео: AVI
Видео: XviD build 50, 704x528 (1.33:1), 25.00 fps, 2047 kbps avg, 0.22 bit/pixel
Аудио: AC3 Dolby Digital, 48000Hz, 2/0 (L,R) ch, 192.00 kbps avg

MediaInfo

Гротеск - Grotesque [by ale_x2008].avi
Format : AVI
Format/Info : Audio Video Interleave
File size : 1.40 GiB
Duration : 1h 29mn
Overall bit rate : 2 249 Kbps
Movie name : Гротеск - Grotesque [by ale_x2008]
Director : by ale_x2008
Writing application : VirtualDubMod 1.5.10.3 (build 2550/release)
Copyright : Edich2
Comment : erzsebet.org
Video
ID : 0
Format : MPEG-4 Visual
Format profile : Advanced [email protected]
Format settings, BVOP : 2
Format settings, QPel : No
Format settings, GMC : No warppoints
Format settings, Matrix : Custom
Codec ID : XVID
Codec ID/Hint : XviD
Duration : 1h 29mn
Bit rate : 2 048 Kbps
Width : 704 pixels
Height : 528 pixels
Display aspect ratio : 4:3
Frame rate : 25.000 fps
Color space : YUV
Chroma subsampling : 4:2:0
Bit depth : 8 bits
Scan type : Progressive
Compression mode : Lossy
Bits/(Pixel*Frame) : 0.220
Stream size : 1.27 GiB (91%)
Writing library : XviD 1.2.1 (UTC 2008-12-04)
Audio
ID : 1
Format : AC-3
Format/Info : Audio Coding 3
Mode extension : CM (complete main)
Format settings, Endianness : Big
Codec ID : 2000
Duration : 1h 29mn
Bit rate mode : Constant
Bit rate : 192 Kbps
Channel(s) : 2 channels
Channel positions : Front: L R
Sampling rate : 48.0 KHz
Bit depth : 16 bits
Compression mode : Lossy
Stream size : 122 MiB (9%)
Alignment : Split accross interleaves
Interleave, duration : 40 ms (1.00 video frame)
Interleave, preload duration : 500 ms

If your ratio falls below 0.3, you will not be able to download Torrents! More about the rating.

[erzsebet.pl].t51694.torrent
Torrent: Registered   [ 2017-12-11 02:36 ]

Download .torrent

Download

14 KB

Status: checked
Completed: 16 times
Size: 1.4 GB
terms.php

#1

11-Dec-2017 01:28

[Profile]  [PM] 
Display posts:    

You cannot post new topics in this forum
You cannot reply to topics in this forum
You cannot edit your posts in this forum
You cannot delete your posts in this forum
You cannot vote in polls in this forum
You cannot attach files in this forum
You can download files in this forum
User agreement
For copyright holders
Advertise on this site

Скачайте на халяву через торрент на трекере erzsebet.pl

!ATTENTION!
The site does not give electronic versions of products, and is engaged only in a collecting and cataloguing of the references sent and published at a forum by our readers. If you are the legal owner of any submitted material and do not wish that the reference to it was in our catalogue, contact us and we shall immediately remove her. Files for an exchange on tracker are given by users of a site, and the administration does not bear the responsibility for their maintenance. The request to not fill in the files protected by copyrights, and also files of the illegal maintenance!