Конь гордецов / Конь гордыни / The Horse of Pride / Le cheval d’Orgueil (Клод Шаброль / Claude Chabrol) [1980, Франция, Экранизация, драма, DVB] VO + Sub Rus + Original Fre

DL-List and Torrent activity
Size:  2.46 GB   |    Registered:  2 years 10 months   |    Completed:  16 times
Seeders:  2  
 
   
 
 

Max Levien ®

Longevity:
2 years 10 months
Posts:
20374

[Quote] 

Конь гордецов / Конь гордыни / The Horse of Pride / Le cheval d’Orgueil
Страна: Франция
Жанр: Экранизация, драма
Год выпуска: 1980
Продолжительность: 01:53:24
Перевод: Одноголосый закадровый
Субтитры: русские
Оригинальная аудиодорожка: французский
Режиссер: Клод Шаброль / Claude Chabrol
В ролях: Жак Дюфило / Jacques Dufilho (Alain, le grand-père), Бернадетт Ле Саше / Bernadette Le Saché (Anne-Marie, la mère), Франсуа Клюзе / François Cluzet (Pierre-Alain, le père), Поль Ле Персон / Paul Le Person (Gourgon, le facteur), Мишель Робен / Michel Robin (Le marquis), Ронан Юбер / Ronan Hubert (Pierre-Jacques à 7 ans), Армель Юбер / Armel Hubert (Pierre-Jacques à 11 ans), Доминик Лаванан / Dominique Lavanant (Marie-Jeanne, la sage-femme), Мишель Блан / Michel Blanc (Corentin Calvez), Жорж Вильсон / Georges Wilson (Récitant / Narrator, voice)
Описание: По автобиографической книге Пьера-Жакеза Элиаса / Pierre-Jakez Hélias «Le cheval d'orgueuil, Mémoires d'un Breton du pays bigouden» (1975). Пьер-Жакез Элиас - бретонский журналист, писатель, поэт и сценарист, работавший на французском и бретонском языках. С юных лет Элиас увлеченно собирает бретонские легенды, сказки, предания и постепенно вырастает в крупнейшего специалиста по кельтскому фольклору, становится профессором Бретонского университета и преподает в коллеже Кэмпера. К шестидесяти годам, когда наступает время подводить жизненные итоги, он пишет мемуары: «Конь моей гордости» с подзаголовком «Воспоминания бретонца из Бигуденского края» (1975). Эта книга имела оглушительный успех. Автор получил престижную премию «Сегодня», которую вручают за лучшее публицистическое и документальное произведение года, а тираж его мемуаров вырос за несколько месяцев до 500 тысяч экземпляров. Книга вышла вскоре в массовом «карманном» издании, и ее тираж достиг к 1981 году двух миллионов экземпляров. (Либрусек)
События фильма развертываются в Бретани в начале ХХ века. Традиционная сельская семья, в которой три поколения живут под одной крышей, в которой существует заведенное разделение труда между мужчинами и женщинами, а вечерние разговоры взрослых касаются религии и политики, испытывает серьезный кризис с наступлением Мировой войны, на которую уходит отец главного героя – мальчика Пьера… Семья не могла позволить себе купить коня, но дед часто катал мальчика на загривке, называя это «Конем гордецов», потому что нравственная гордость — единственное, что остается бедняку, тому, кому не посчастливилось родиться богатым.
Доп. информация: Фильм взят отсюда http://erzsebet.org/forum/viewtopic.php?t=4180440
Сэмпл: http://multi-up.com/1011519
Качество видео: DVB
Формат видео: MKV
Видео: MPEG Video at 2666 Кбит/сек : 720 x 576 (1.778) at 25.000 fps
Аудио 1: MPEG Audio at 192 Кбит/сек : 2 канала, 48,0 КГц Language : ru
Аудио 2: MPEG Audio at 192 Кбит/сек : 2 канала, 48,0 КГц Language : fr
Формат субтитров: hardsub (неотключаемые)
Доп. информация о субтитрах: Русские (Е. Маньен, Éclair Group)

MediaInfo

Общее
Уникальный идентификатор : 227602240964834750039159234176575165283 (0xAB3A98DD67D5D12F99845584ADD95363)
Полное имя : F:\С моей озвучкой\Конь гордецов.mkv
Формат : Matroska
Версия формата : Version 4 / Version 2
Размер файла : 2,46 Гбайт
Продолжительность : 1 ч. 53 м.
Режим общего битрейта : Переменный
Общий поток : 3112 Кбит/сек
Дата кодирования : UTC 2014-11-06 20:09:33
Программа кодирования : mkvmerge v6.1.0 ('Old Devil') built on Mar 4 2013 09:10:42
Библиотека кодирования : libebml v1.3.0 + libmatroska v1.4.0
Видео
Идентификатор : 1
Формат : MPEG Video
Версия формата : Version 2
Профиль формата : [email protected]
Параметр BVOP формата : Нет
Параметр матрицы формата : Выборочная
Идентификатор кодека : V_MPEG2
Идентификатор кодека/Информация : MPEG 1 or 2 Video
Продолжительность : 1 ч. 53 м.
Вид битрейта : Переменный
Битрейт : 2666 Кбит/сек
Максимальный битрейт : 5282 Кбит/сек
Ширина : 720 пикселей
Высота : 576 пикселей
Соотношение сторон : 16:9
Режим частоты кадров : Постоянный
Частота кадров : 25,000 кадров/сек
Стандарт вещания : PAL
Цветовое пространство : YUV
Субдискретизация насыщенности : 4:2:0
Битовая глубина : 8 бит
Тип развёртки : Прогрессивная
Порядок развёртки : Верхнее поле первое
Метод сжатия : С потерями
Бит/(Пиксели*Кадры) : 0.257
Временной код первого кадра : 00:00:00:00
Оригинал временного кода : Group of pictures header
Размер потока : 2,11 Гбайт (86%)
Default : Да
Forced : Нет
Аудио #1
Идентификатор : 2
Формат : MPEG Audio
Версия формата : Version 1
Профиль формата : Layer 3
Режим : Joint stereo
Расширение режима : MS Stereo
Идентификатор кодека : A_MPEG/L3
Идентификатор кодека/Подсказка : MP3
Продолжительность : 1 ч. 53 м.
Вид битрейта : Постоянный
Битрейт : 192 Кбит/сек
Каналы : 2 канала
Частота : 48,0 КГц
Метод сжатия : С потерями
Размер потока : 156 Мбайт (6%)
Библиотека кодирования : LAME3.96
Язык : Russian
Default : Да
Forced : Нет
Аудио #2
Идентификатор : 3
Формат : MPEG Audio
Версия формата : Version 1
Профиль формата : Layer 2
Идентификатор кодека : A_MPEG/L2
Идентификатор кодека/Подсказка : MP2
Продолжительность : 1 ч. 53 м.
Вид битрейта : Постоянный
Битрейт : 192 Кбит/сек
Каналы : 2 канала
Частота : 48,0 КГц
Метод сжатия : С потерями
Размер потока : 156 Мбайт (6%)
Язык : French
Default : Нет
Forced : Нет

Скриншоты

If your ratio falls below 0.3, you will not be able to download Torrents! More about the rating.

[erzsebet.pl].t51695.torrent
Torrent: Registered   [ 2017-12-11 02:36 ]

Download .torrent

Download

13 KB

Status: checked
Completed: 16 times
Size: 2.46 GB
terms.php

#1

11-Dec-2017 01:28

[Profile]  [PM] 
Display posts:    

You cannot post new topics in this forum
You cannot reply to topics in this forum
You cannot edit your posts in this forum
You cannot delete your posts in this forum
You cannot vote in polls in this forum
You cannot attach files in this forum
You can download files in this forum
User agreement
For copyright holders
Advertise on this site

Скачайте на халяву через торрент на трекере erzsebet.pl

!ATTENTION!
The site does not give electronic versions of products, and is engaged only in a collecting and cataloguing of the references sent and published at a forum by our readers. If you are the legal owner of any submitted material and do not wish that the reference to it was in our catalogue, contact us and we shall immediately remove her. Files for an exchange on tracker are given by users of a site, and the administration does not bear the responsibility for their maintenance. The request to not fill in the files protected by copyrights, and also files of the illegal maintenance!