Не отступать и не сдаваться / Тигр Каратэ / No Retreat, No Surrender / Karate Tiger (Кори Юэнь / Corey Yuen) [1986, США, Гонконг, боевик, драма, DVDRip] VO (Мосфильм)

DL-List and Torrent activity
Size:  1.46 GB   |    Registered:  2 years 10 months   |    Completed:  16 times
Seeders:  2  
 
   
 
 

Max Levien ®

Longevity:
2 years 10 months
Posts:
20374

[Quote] 

Не отступать и не сдаваться / Тигр Каратэ / No Retreat, No Surrender / Karate Tiger-«When life is on the line there can be ...» Страна: США, Гонконг
Жанр: боевик, драма
Год выпуска: 1986
Продолжительность: 01:34:38
Рейтинг MMPA: -Перевод: Студийный (одноголосый закадровый) [ГТПО «Мосфильм» / Сергей Мартынов]
Субтитры: нет-Режиссер: Кори Юэнь / Corey Yuen
В ролях: Курт МакКинни, Жан-Клод Ван Дамм, Дж.В. У., Кэти Сайлено, Таи Чунг Ким, Кент Липэм, Рон Понел, Дэйл Джейкоби, Питер Каннингэм, Тимоти Д. Бэйкер-Описание: Парнишка, изучающий восточные единоборства и мечтающий стать чемпионом, бесстрашно вступает в борьбу с уголовниками и шпаной и зарабатывает сперва лишь синяки и насмешки окружающих.
Но в награду за проявленную силу духа, настойчивость и упорную работу на тренировках до седьмого пота, ему начинает покровительствовать и обучать его всем секретам мастерства дух самого Брюса Ли. И, сразившись в большом турнире с грозным русским противником, молодой американский кикбоксер сенсационно, вопреки ожиданиям зрителей и прогнозам специалистов, побеждает.-Доп. информация: Звуковую дорожку предоставил skarbet, со звуком работал shocker80. За что им огромное спасибо!- -Качество видео: DVDRip [исходник DVD5]
Формат видео: AVI
Видео: Xvid, 704x544, 25 fps, 1940 kbps, 0.20 bit/pixel
Аудио: AC3 Dolby Digital, 48 kHz, 256 kbps, 2/0 (L,R) ch

Сравнение

http://erzsebet.org/forum/viewtopic.php?t=2237802
Другой перевод.-http://erzsebet.org/forum/viewtopic.php?t=2511409
Другой перевод.

MediaInfo

General
Complete name : No.Retreat,No.Surrender.1986.DVDRip.Xvid.AC3-Zombie.Lee.avi
Format : AVI
Format/Info : Audio Video Interleave
File size : 1.46 GiB
Duration : 1h 34mn
Overall bit rate : 2 207 Kbps
Writing library : VirtualDub build 33790/release
Video
ID : 0
Format : MPEG-4 Visual
Format profile : Advanced [email protected]
Format settings, BVOP : 1
Format settings, QPel : No
Format settings, GMC : No warppoints
Format settings, Matrix : Custom
Codec ID : XVID
Codec ID/Hint : XviD
Duration : 1h 34mn
Bit rate : 1 941 Kbps
Width : 704 pixels
Height : 544 pixels
Display aspect ratio : 1.294
Frame rate : 25.000 fps
Color space : YUV
Chroma subsampling : 4:2:0
Bit depth : 8 bits
Scan type : Progressive
Compression mode : Lossy
Bits/(Pixel*Frame) : 0.203
Stream size : 1.28 GiB (88%)
Writing library : XviD 64
Audio
ID : 1
Format : AC-3
Format/Info : Audio Coding 3
Mode extension : CM (complete main)
Codec ID : 2000
Duration : 1h 34mn
Bit rate mode : Constant
Bit rate : 256 Kbps
Channel(s) : 2 channels
Channel positions : Front: L R
Sampling rate : 48.0 KHz
Bit depth : 16 bits
Compression mode : Lossy
Stream size : 173 MiB (12%)
Alignment : Aligned on interleaves
Interleave, duration : 40 ms (1.00 video frame)
Interleave, preload duration : 512 ms

Обложка DVD


Скриншот c названием фильма

Скриншоты

If your ratio falls below 0.3, you will not be able to download Torrents! More about the rating.

[erzsebet.pl].t51698.torrent
Torrent: Registered   [ 2017-12-11 02:36 ]

Download .torrent

Download

15 KB

Status: checked
Completed: 16 times
Size: 1.46 GB
terms.php

#1

11-Dec-2017 01:28

[Profile]  [PM] 
Display posts:    

You cannot post new topics in this forum
You cannot reply to topics in this forum
You cannot edit your posts in this forum
You cannot delete your posts in this forum
You cannot vote in polls in this forum
You cannot attach files in this forum
You can download files in this forum
User agreement
For copyright holders
Advertise on this site

Скачайте на халяву через торрент на трекере erzsebet.pl

!ATTENTION!
The site does not give electronic versions of products, and is engaged only in a collecting and cataloguing of the references sent and published at a forum by our readers. If you are the legal owner of any submitted material and do not wish that the reference to it was in our catalogue, contact us and we shall immediately remove her. Files for an exchange on tracker are given by users of a site, and the administration does not bear the responsibility for their maintenance. The request to not fill in the files protected by copyrights, and also files of the illegal maintenance!