Пунтя и четырехлистник / Punta a Ctyrlistek (Иржи Вайс / Jiri Weiss) [1955, Чехословакия, семейный, DVDRip] VO (Семен Ващенко) + Sub Rus + Original Cze

Reply to topic
DL-List and Torrent activity
Size:  1.58 GB   |    Registered:  3 years 1 month   |    Completed:  16 times

Seeder not seen: Never

 
   
 
 
Author Message

erzsebet.org ®

Longevity: 3 years 1 month

Posts: 47596

Post 02-Dec-2017 16:55

[Quote]

Пунтя и четырехлистник / Punta a Ctyrlistek
Страна: Чехословакия
Жанр: семейный
Год выпуска: 1955
Продолжительность: 01:29:47
Перевод: Одноголосый закадровый (Семен Ващенко)
Субтитры: русские (dido123), чешские
Оригинальная аудиодорожка: чешский
Режиссер: Иржи Вайс / Jiri Weiss
В ролях: Алеш Кошнар / Ales Kosnar, Вацлав Постранецкий / Vaclav Postranecky, Мирослав Коукал / Miroslav Koukal, Вера Србкова / Vera Srbkova, Владимир Пухольт / Vladimir Pucholt, Йозеф Бек / Josef Bek, Ярмила Смейкалова / Jarmila Smejkalova, Зденек Дите / Zdenek Dite, Наташа Голлова / Natasa Gollova
Описание: Мальчик Тонда находит потерявшуюся собаку. Он и его друзья очень к ней привязываются и дают имя Пунтя. В то же время девочка Лидка разыскивает свою пропавшую собаку. Но Тонда не желает расставаться со своим питомцем, прячет его и врёт дома, откуда он появился. Одна ложь цепляет другую, и вскоре его стараниями многочисленные проблемы находят и Тонду, и его друзей.
Доп. информация: http://www.imdb.com/title/tt0176065/
Перевод - dido123
Озвучание - Семен Ващенко
Работа со звуком - Diablo
Спасибо Berendey за перевод титров и косметику субтитров
Сэмпл: http://multi-up.com/1162084
Качество видео: DVDRip
Формат видео: AVI
Видео: XviD, 688x512 (4:3), 25.000 fps, 2118 kbps
Аудио: AC3, 48000 Hz, 2 ch, 192 kbps (русский)
Аудио 2: AC3, 48000 Hz, 2 ch, 192 kbps (чешский)
Формат субтитров: softsub (SRT)

MediaInfo

General
Complete name : F:\Рутрекер\Пунтя\Punta a ctyrlístek (1955).avi
Format : AVI
Format/Info : Audio Video Interleave
File size : 1.58 GiB
Duration : 1h 29mn
Overall bit rate : 2 517 Kbps
Writing application : VirtualDubMod 1.5.10.2 (build 2542/release)
Writing library : VirtualDubMod build 2542/release
Video
ID : 0
Format : MPEG-4 Visual
Format profile : Advanced [email protected]
Format settings, BVOP : 2
Format settings, QPel : No
Format settings, GMC : No warppoints
Format settings, Matrix : Default (MPEG)
Codec ID : XVID
Codec ID/Hint : XviD
Duration : 1h 29mn
Bit rate : 2 118 Kbps
Width : 688 pixels
Height : 512 pixels
Display aspect ratio : 4:3
Frame rate : 25.000 fps
Color space : YUV
Chroma subsampling : 4:2:0
Bit depth : 8 bits
Scan type : Progressive
Compression mode : Lossy
Bits/(Pixel*Frame) : 0.241
Stream size : 1.33 GiB (84%)
Writing library : XviD 64
Audio #1
ID : 1
Format : AC-3
Format/Info : Audio Coding 3
Mode extension : CM (complete main)
Format settings, Endianness : Big
Codec ID : 2000
Duration : 1h 29mn
Bit rate mode : Constant
Bit rate : 192 Kbps
Channel(s) : 2 channels
Channel positions : Front: L R
Sampling rate : 48.0 KHz
Bit depth : 16 bits
Compression mode : Lossy
Stream size : 123 MiB (8%)
Alignment : Split accross interleaves
Interleave, duration : 40 ms (1.00 video frame)
Interleave, preload duration : 500 ms
Audio #2
ID : 2
Format : AC-3
Format/Info : Audio Coding 3
Mode extension : CM (complete main)
Format settings, Endianness : Big
Codec ID : 2000
Duration : 1h 29mn
Bit rate mode : Constant
Bit rate : 192 Kbps
Channel(s) : 2 channels
Channel positions : Front: L R
Sampling rate : 48.0 KHz
Bit depth : 16 bits
Compression mode : Lossy
Stream size : 123 MiB (8%)
Alignment : Split accross interleaves
Interleave, duration : 40 ms (1.00 video frame)
Interleave, preload duration : 500 ms

Скриншот c названием фильма

If your ratio falls below 0.3, you will not be able to download Torrents! More about the rating.

[erzsebet.pl].t517.torrent
Torrent: Registered [ 2017-12-02 16:56 ] · B6AD2C9800D67321F83EFBB1D36F066C3C9CF3EF

Download .torrent

Download

16 KB

Status: checked
Completed: 16 times
Size: 1.58 GB
terms.php
[Profile] [PM]
Display posts:    
Reply to topic

Current time is: 22-Jan 22:11

All times are UTC ± 0



You cannot post new topics in this forum
You cannot reply to topics in this forum
You cannot edit your posts in this forum
You cannot delete your posts in this forum
You cannot vote in polls in this forum
You cannot attach files in this forum
You can download files in this forum