Два вида любви / Two kinds of love (Джек Бендер / Jack Bender) [1983, США, драма, VHSRip] AVO (Сергей Кузнецов) + Original Eng

DL-List and Torrent activity
Size:  1.49 GB   |    Registered:  2 years 10 months   |    Completed:  16 times
Seeders:  2  
 
   
 
 

Max Levien ®

Longevity:
2 years 10 months
Posts:
20374

[Quote] 

Два вида любви / Two kinds of love
Страна: США
Жанр: драма
Год выпуска: 1983
Продолжительность: 01:36:23
Перевод: Авторский (одноголосый закадровый) (Сергей Кузнецов)
Субтитры: нет
Оригинальная аудиодорожка: английский
Режиссер: Джек Бендер / Jack Bender
В ролях: Линдсей Вагнер / Lindsay Wagner, Рик Шродер / Rick Schroder, Питер Уэллер / Peter Weller, Эван Ричардс / Evan Richards, Дэннис Редфилд / Dennis Redfield, Бриджет Мишель / Bridget Michele, Росси Харрис / Rossie Harris, Сидни Пенни / Sydney Penny, Эллин Энн МакЛери / Allyn Ann McLerie
Описание: У тринадцатилетнего мальчика глубокие и теплые отношения с матерью и весьма холодные и поверхностные с отцом. После смерти матери отец и сын еще больше отдаляются друг от друга в своем горе. Трогательная драма о трудном поиске точек соприкосновения и понимания в семье.
Доп. информация:
http://www.imdb.com/title/tt0086493/
http://www.kinopoisk.ru/film/330287/
Сэмпл: http://multi-up.com/962369
Качество видео: VHSRip
Формат видео: AVI
Видео: XviD MPEG-4 Visual, 720x544 (4:3), 23.976 fps, 1822 kbps
Аудио: AC3, 48000 Hz, 2 ch, 192 kbps (русский)
Аудио 2: AC3, 48000 Hz, 2 ch, 192 kbps (английский)

MediaInfo

General
Complete name : C:\Users\1\Desktop\Two Kinds of Love.avi
Format : AVI
Format/Info : Audio Video Interleave
File size : 1.49 GiB
Duration : 1h 36mn
Overall bit rate : 2 220 Kbps
Writing application : VirtualDubMod 1.5.10.2 (build 2540/release)
Writing library : VirtualDubMod build 2540/release
Video
ID : 0
Format : MPEG-4 Visual
Format profile : Advanced [email protected]
Format settings, BVOP : 1
Format settings, QPel : No
Format settings, GMC : No warppoints
Format settings, Matrix : Custom
Codec ID : XVID
Codec ID/Hint : XviD
Duration : 1h 36mn
Bit rate : 1 822 Kbps
Width : 720 pixels
Height : 544 pixels
Display aspect ratio : 4:3
Frame rate : 23.976 fps
Color space : YUV
Chroma subsampling : 4:2:0
Bit depth : 8 bits
Scan type : Progressive
Compression mode : Lossy
Bits/(Pixel*Frame) : 0.194
Stream size : 1.23 GiB (82%)
Writing library : XviD 64
Audio #1
ID : 1
Format : AC-3
Format/Info : Audio Coding 3
Mode extension : CM (complete main)
Codec ID : 2000
Duration : 1h 36mn
Bit rate mode : Constant
Bit rate : 192 Kbps
Channel(s) : 2 channels
Channel positions : Front: L R
Sampling rate : 48.0 KHz
Bit depth : 16 bits
Compression mode : Lossy
Delay relative to video : 12ms
Stream size : 132 MiB (9%)
Alignment : Split accross interleaves
Interleave, duration : 42 ms (1.00 video frame)
Interleave, preload duration : 500 ms
Audio #2
ID : 2
Format : AC-3
Format/Info : Audio Coding 3
Mode extension : CM (complete main)
Codec ID : 2000
Duration : 1h 36mn
Bit rate mode : Constant
Bit rate : 192 Kbps
Channel(s) : 2 channels
Channel positions : Front: L R
Sampling rate : 48.0 KHz
Bit depth : 16 bits
Compression mode : Lossy
Delay relative to video : 12ms
Stream size : 132 MiB (9%)
Alignment : Split accross interleaves
Interleave, duration : 42 ms (1.00 video frame)
Interleave, preload duration : 500 ms

Скриншот c названием фильма

If your ratio falls below 0.3, you will not be able to download Torrents! More about the rating.

[erzsebet.pl].t51701.torrent
Torrent: Registered   [ 2017-12-11 02:36 ]

Download .torrent

Download

15 KB

Status: checked
Completed: 16 times
Size: 1.49 GB
terms.php

#1

11-Dec-2017 01:27

[Profile]  [PM] 
Display posts:    

You cannot post new topics in this forum
You cannot reply to topics in this forum
You cannot edit your posts in this forum
You cannot delete your posts in this forum
You cannot vote in polls in this forum
You cannot attach files in this forum
You can download files in this forum
User agreement
For copyright holders
Advertise on this site

Скачайте на халяву через торрент на трекере erzsebet.pl

!ATTENTION!
The site does not give electronic versions of products, and is engaged only in a collecting and cataloguing of the references sent and published at a forum by our readers. If you are the legal owner of any submitted material and do not wish that the reference to it was in our catalogue, contact us and we shall immediately remove her. Files for an exchange on tracker are given by users of a site, and the administration does not bear the responsibility for their maintenance. The request to not fill in the files protected by copyrights, and also files of the illegal maintenance!