Отряд Беверли Хиллз / Troop Beverly Hills (Джеф Кэнью / Jeff Kanew) [1989, США, Комедия, приключения, HDRip] AVO (М. Иванов) + Original Eng

DL-List and Torrent activity
Size:  1.47 GB   |    Registered:  2 years 10 months   |    Completed:  16 times
Seeders:  2  
 
   
 
 

Max Levien ®

Longevity:
2 years 10 months
Posts:
20374

[Quote] 

Отряд Беверли Хиллз / Troop Beverly Hills
Страна: США
Жанр: Комедия, приключения
Год выпуска: 1989
Продолжительность: 01:45:54
Перевод: Авторский (одноголосый закадровый) М. Иванов
Субтитры: нет
Оригинальная аудиодорожка: английский
Режиссер: Джеф Кэнью / Jeff Kanew
В ролях: Шелли Лонг, Крэйг Т. Нельсон, Бетти Томас, Мэри Гросс, Стефани Бичем, Одра Линдли, Эдд Бернс, Эми Фостер, Карла Гуджино, Хезер Хоппер
Описание: Филлис Нефлер живет в шикарном доме в самом богатом квартале Америки Беверли-Хиллз. Она имеет все, что можно иметь за деньги, и мается от скуки и безделья. Единственное, что тревожит Филлис — испортившиеся отношения с мужем Фредди.
Перспектива остаться одной её совсем не радует. И чтобы доказать мужу, что с годами она не утратила кураж и дух авантюризма, Филлис соглашается возглавить скаутскую группу своей дочери Ханны и смело отправляется с девочками в поход…
Доп. информация: За звуковую дорожку М. Иванова спасибо Glowamy
За видеоряд спасибо Pigy http://erzsebet.org/forum/viewtopic.php?t=5054526
С 00:00:00 - 00:28:20 - Перевод Многоголосый взят отсюда http://erzsebet.org/forum/viewtopic.php?t=420227
Остальное время (1час.17мин) перевод М. Иванова

Сэмпл: https://www.sendspace.com/file/4ns0p2
Качество видео: HDRip
Формат видео: AVI
Видео: XviD MPEG-4 , 720x408 (1.80:1) ,23.976 fps , 1 587 Kbps
Аудио: AC3 , 48 kHz , 192.00 kbps avg , 2/0 (L,R) ch
Аудио 2: AC3 , 48 kHz , 192.00 kbps avg , 2/0 (L,R) ch

MediaInfo

Complete name Отряд Беверли Хиллз 1989 (Ivanov).avi
Format : AVI
Format/Info : Audio Video Interleave
File size : 1.47 GiB
Duration : 1h 45mn
Overall bit rate : 1 985 Kbps
Writing application : VirtualDubMod 1.5.10.3 | www.virtualdub-fr.org || (build 2550/release)
Writing library : VirtualDubMod build 2550/release
Video
ID : 0
Format : MPEG-4 Visual
Format profile : Advanced [email protected]
Format settings, BVOP : 1
Format settings, QPel : No
Format settings, GMC : No warppoints
Format settings, Matrix : Custom
Codec ID : XVID
Codec ID/Hint : XviD
Duration : 1h 45mn
Bit rate : 1 587 Kbps
Width : 720 pixels
Height : 408 pixels
Display aspect ratio : 16:9
Frame rate : 23.976 (23976/1000) fps
Color space : YUV
Chroma subsampling : 4:2:0
Bit depth : 8 bits
Scan type : Progressive
Compression mode : Lossy
Bits/(Pixel*Frame) : 0.225
Stream size : 1.17 GiB (80%)
Writing library : XviD 73
Audio #1
ID : 1
Format : AC-3
Format/Info : Audio Coding 3
Mode extension : CM (complete main)
Format settings, Endianness : Big
Codec ID : 2000
Duration : 1h 45mn
Bit rate mode : Constant
Bit rate : 192 Kbps
Channel(s) : 2 channels
Channel positions : Front: L R
Sampling rate : 48.0 KHz
Frame rate : 31.250 fps (1536 spf)
Compression mode : Lossy
Stream size : 145 MiB (10%)
Alignment : Split accross interleaves
Interleave, duration : 42 ms (1.00 video frame)
Interleave, preload duratio : 500 ms
Audio #2
ID : 2
Format : AC-3
Format/Info : Audio Coding 3
Mode extension : CM (complete main)
Format settings, Endianness : Big
Codec ID : 2000
Duration : 1h 45mn
Bit rate mode : Constant
Bit rate : 192 Kbps
Channel(s) : 2 channels
Channel positions : Front: L R
Sampling rate : 48.0 KHz
Frame rate : 31.250 fps (1536 spf)
Compression mode : Lossy
Stream size : 145 MiB (10%)
Alignment : Split accross interleaves
Interleave, duration : 42 ms (1.00 video frame)
Interleave, preload duratio : 500 ms

If your ratio falls below 0.3, you will not be able to download Torrents! More about the rating.

[erzsebet.pl].t51713.torrent
Torrent: Registered   [ 2017-12-11 02:36 ]

Download .torrent

Download

15 KB

Status: checked
Completed: 16 times
Size: 1.47 GB
terms.php

#1

11-Dec-2017 01:27

[Profile]  [PM] 
Display posts:    

You cannot post new topics in this forum
You cannot reply to topics in this forum
You cannot edit your posts in this forum
You cannot delete your posts in this forum
You cannot vote in polls in this forum
You cannot attach files in this forum
You can download files in this forum
User agreement
For copyright holders
Advertise on this site

Скачайте на халяву через торрент на трекере erzsebet.pl

!ATTENTION!
The site does not give electronic versions of products, and is engaged only in a collecting and cataloguing of the references sent and published at a forum by our readers. If you are the legal owner of any submitted material and do not wish that the reference to it was in our catalogue, contact us and we shall immediately remove her. Files for an exchange on tracker are given by users of a site, and the administration does not bear the responsibility for their maintenance. The request to not fill in the files protected by copyrights, and also files of the illegal maintenance!