Сегодня вечером я опасна / I'm Dangerous Tonight (Тоуб Хупер / Tobe Hooper) [1990, США, ужасы, триллер, SATRip] MVO (СТС)

DL-List and Torrent activity
Size:  1.41 GB   |    Registered:  2 years 10 months   |    Completed:  16 times
Seeders:  2  
 
   
 
 

Max Levien ®

Longevity:
2 years 10 months
Posts:
20374

[Quote] 

Сегодня вечером я опасна / I'm Dangerous Tonight
Год выпуска: 1990
Страна: США
Жанр: ужасы, триллер
Продолжительность: 01:28:13
Перевод: Профессиональный (многоголосый закадровый) - СТС
Субтитры: нет
Режиссер: Тоуб Хупер / Tobe Hooper
В ролях: Медкен Эмик (Amy), Кори Паркер (Eddie), Дэйзи Холл (Gloria), Рональд ли Эрми (Lt. Ackman), Натали Шафер (Grandmother), Джейсон Брукс (Mason), Вильям Бергер (Jonas Wilson), Мэри Фрэнн (Martha), Ди Уоллес-Стоун (Wanda Thatcher), Энтони Перкинс (Prof. Buchanan)-Мировая премьера: 8 августа 1990-Описание: В колледж пришла посылка. Огромный такой ящик. С какими-то древностями. Груз привезли вечером, когда, кроме охранника и преподавателя (на имя которого был адресован ящик), на складе колледжа и не было никого. Учителю не терпелось, и он взломал посылку. А не следовало… Потом прибежал охранник. И тоже напрасно… Хотите — верьте, хотите — нет, но причиной смерти обоих стала…-Исходник видео: из -Огромная благодарность:
SuperDVD01 - собственная запись перевода СТС с какого-то украинского телеканала через рекордер.
JUSTKANT - синхронизация перевода.-На русский язык фильм озвучен по заказу телеканала СТС.
Текст читают Владимир Антоник, Михаил Тихонов, Мария Овчинникова и Марина Бакина.-
Рейтинг

MPAA: R - Лицам до 17 лет обязательно присутствие взрослого.-Качество видео: SATRip
Формат видео: AVI -> //Сэмпл//
Видео: XviD, 608x464 (4:3), 25.000 fps, 2080 kbps avg
Аудио:
1 - 48 khz, AC3 Dolby Digital, 2/0 (L,R) ch, ~192 kbps [СТС] TVRip

MediaInfo

General
Complete name : I:\Торрент Файлы\Будущие Релизы на Трекере\1.35 - 1.46 и более гб\Сегодня Вечером я Опасна (СТС).avi
Format : AVI
Format/Info : Audio Video Interleave
File size : 1.41 GiB
Duration : 1h 28mn
Overall bit rate : 2 281 Kbps
Writing application : VirtualDubMod 1.5.10.3 | www.virtualdub-fr.org || (build 2550/release)
Writing library : VirtualDubMod build 2550/release
Video
ID : 0
Format : MPEG-4 Visual
Format profile : Advanced [email protected]
Format settings, BVOP : 1
Format settings, QPel : No
Format settings, GMC : No warppoints
Format settings, Matrix : Default (MPEG)
Codec ID : XVID
Codec ID/Hint : XviD
Duration : 1h 28mn
Bit rate : 2 080 Kbps
Width : 608 pixels
Height : 464 pixels
Display aspect ratio : 4:3
Frame rate : 25.000 fps
Color space : YUV
Chroma subsampling : 4:2:0
Bit depth : 8 bits
Scan type : Progressive
Compression mode : Lossy
Bits/(Pixel*Frame) : 0.295
Stream size : 1.28 GiB (91%)
Writing library : XviD 1.1.2 (UTC 2006-11-01)
Audio
ID : 1
Format : AC-3
Format/Info : Audio Coding 3
Mode extension : CM (complete main)
Format settings, Endianness : Big
Codec ID : 2000
Duration : 1h 28mn
Bit rate mode : Constant
Bit rate : 192 Kbps
Channel(s) : 2 channels
Channel positions : Front: L R
Sampling rate : 48.0 KHz
Frame rate : 31.250 fps (1536 spf)
Compression mode : Lossy
Stream size : 121 MiB (8%)
Alignment : Split accross interleaves
Interleave, duration : 40 ms (1.00 video frame)
Interleave, preload duratio : 500 ms
Title : СТС - Владимир Антоник, Мария Овчинникова и Марина Бакина

Скриншот c названием фильма

Скриншоты

If your ratio falls below 0.3, you will not be able to download Torrents! More about the rating.

[erzsebet.pl].t51714.torrent
Torrent: Registered   [ 2017-12-11 02:36 ]

Download .torrent

Download

15 KB

Status: checked
Completed: 16 times
Size: 1.41 GB
terms.php

#1

11-Dec-2017 01:27

[Profile]  [PM] 
Display posts:    

You cannot post new topics in this forum
You cannot reply to topics in this forum
You cannot edit your posts in this forum
You cannot delete your posts in this forum
You cannot vote in polls in this forum
You cannot attach files in this forum
You can download files in this forum
User agreement
For copyright holders
Advertise on this site

Скачайте на халяву через торрент на трекере erzsebet.pl

!ATTENTION!
The site does not give electronic versions of products, and is engaged only in a collecting and cataloguing of the references sent and published at a forum by our readers. If you are the legal owner of any submitted material and do not wish that the reference to it was in our catalogue, contact us and we shall immediately remove her. Files for an exchange on tracker are given by users of a site, and the administration does not bear the responsibility for their maintenance. The request to not fill in the files protected by copyrights, and also files of the illegal maintenance!