А вот и другой / Ha-Meticha Ha'Gdola / The Big Tease: Here Comes Another One (Йехуда Бэркэн / Yehuda Barkan) [1984, Израиль, комедия, TVRip] MVO (5 канал СПб)

DL-List and Torrent activity
Size:  1.02 GB   |    Registered:  2 years 10 months   |    Completed:  16 times
Seeders:  2  
 
   
 
 

Max Levien ®

Longevity:
2 years 10 months
Posts:
20374

[Quote] 

А вот и другой / Ha-Meticha Ha'Gdola / The Big Tease: Here Comes Another One
Страна: Израиль, Golan-Globus Productions
Жанр: комедия
Год выпуска: 1984
Продолжительность: 01:19:14
Перевод: Профессиональный (многоголосый закадровый) 5 канал СПб
Субтитры: нет
Оригинальная аудиодорожка: нет
Режиссер: Йехуда Бэркэн / Yehuda Barkan
В ролях: Мушон Албогер, Йехуда Бэркэн, Арье Шернер, Джуди Пир, Машон Аль-Бочер, Мойша Тиммор, Анат Топол, Анат Тцхор, Ран Апельберг
Описание: В окрестностях Тель-Авива приземляется НЛО. Сразу же начинают происходить самые невероятные вещи - банкомат говорит по-английски, в магазинах продают торты из крема для бритья, девушку с огромный грудью дурачат на улице, сравнивая её обнаженную грудь с фруктом помело и так далее... Фильм в стиле Вас снимает скрытая камера (розыгрыш).
Доп. информация: Рип мой.
Сэмпл: http://multi-up.com/1025941
Качество видео: TVRip
Формат видео: AVI
Видео: XviD build 73, 672x544 (1.24:1), 25.00 fps, 1698 kbps avg
Аудио: Russian MPEG Layer 3, 44 kHz, 2 ch, 128.00 kbps avg

MediaInfo

Complete name : D:\The Big Tease.Here Comes Another One.1984\The Big Tease.Here Comes Another One.1984.TVRip.avi
Format : AVI
Format/Info : Audio Video Interleave
File size : 1.02 GiB
Duration : 1h 19mn
Overall bit rate : 1 836 Kbps
Writing application : VirtualDubMod 1.5.10.3 | www.virtualdub-fr.org || (build 2550/release)
Writing library : VirtualDubMod build 2550/release
Video
ID : 0
Format : MPEG-4 Visual
Format profile : Advanced [email protected]
Format settings, BVOP : 2
Format settings, QPel : No
Format settings, GMC : No warppoints
Format settings, Matrix : Default (MPEG)
Codec ID : XVID
Codec ID/Hint : XviD
Duration : 1h 19mn
Bit rate : 1 698 Kbps
Width : 672 pixels
Height : 544 pixels
Display aspect ratio : 5:4
Frame rate : 25.000 fps
Color space : YUV
Chroma subsampling : 4:2:0
Bit depth : 8 bits
Scan type : Progressive
Compression mode : Lossy
Bits/(Pixel*Frame) : 0.186
Stream size : 962 MiB (92%)
Writing library : XviD 73
Audio
ID : 1
Format : MPEG Audio
Format version : Version 1
Format profile : Layer 3
Codec ID : 55
Codec ID/Hint : MP3
Duration : 1h 19mn
Bit rate mode : Constant
Bit rate : 128 Kbps
Channel(s) : 2 channels
Sampling rate : 44.1 KHz
Compression mode : Lossy
Stream size : 72.5 MiB (7%)
Alignment : Split accross interleaves
Interleave, duration : 40 ms (1.00 video frame)
Interleave, preload duration : 500 ms
Writing library : LAME3.99r
Encoding settings : -m s -V 4 -q 2 -lowpass 17 -b 128

Скриншоты

If your ratio falls below 0.3, you will not be able to download Torrents! More about the rating.

[erzsebet.pl].t51719.torrent
Torrent: Registered   [ 2017-12-11 02:36 ]

Download .torrent

Download

11 KB

Status: checked
Completed: 16 times
Size: 1.02 GB
terms.php

#1

11-Dec-2017 01:27

[Profile]  [PM] 
Display posts:    

You cannot post new topics in this forum
You cannot reply to topics in this forum
You cannot edit your posts in this forum
You cannot delete your posts in this forum
You cannot vote in polls in this forum
You cannot attach files in this forum
You can download files in this forum
User agreement
For copyright holders
Advertise on this site

Скачайте на халяву через торрент на трекере erzsebet.pl

!ATTENTION!
The site does not give electronic versions of products, and is engaged only in a collecting and cataloguing of the references sent and published at a forum by our readers. If you are the legal owner of any submitted material and do not wish that the reference to it was in our catalogue, contact us and we shall immediately remove her. Files for an exchange on tracker are given by users of a site, and the administration does not bear the responsibility for their maintenance. The request to not fill in the files protected by copyrights, and also files of the illegal maintenance!