Как сделать миллион / Bo Nefotzetz Million (Шмуэль Имберман / Shmuel Imberman) [1977, Израиль, комедия, криминал, TVRip] VO (SATKUR)

DL-List and Torrent activity
Size:  1.35 GB   |    Registered:  2 years 10 months   |    Completed:  16 times
Seeders:  4  
 
   
 
 

Max Levien ®

Longevity:
2 years 10 months
Posts:
20374

[Quote] 

Как сделать миллион / Bo Nefotzetz Million
Страна: Израиль
Жанр: комедия, криминал
Год выпуска: 1977
Продолжительность: 01:30:45
Перевод: Одноголосый закадровый SATKUR
Субтитры: Вшитые на иврите
Режиссер: Шмуэль Имберман / Shmuel Imberman
В ролях: Йехуда Баркан,Реувен Бар-Йотам,Жак Коэн,Илан Дар,Йона Элиан,Далия Гар,Йосси Розицки
Описание: Вот уже восемь с половиной лет томится в тюрьме Грего, по кличке «Грек». Он спит и видит, как отомстит предавшему его подельнику Шаби. И вдруг судьба преподносит ему сюрприз — Шаби вызволяет его из тюрьмы, организуя дерзкий побег, причем делает это не из-за любви к Греку…
Доп. информация: Озвучено по субтитрам Baltimor
Сэмпл: http://multi-up.com/975976
Качество видео: TVRip
Формат видео: AVI
Видео: 512x384 (4:3), 25 fps, XviD 1733 kbps avg, 0.353 bit/pixel
Аудио 1: AC-3, 48.0 KHz, 2 channels, 192 Kbps - русский
Аудио 2: AC-3, 48.0 KHz, 2 channels, 192 Kbps - иврит

MediaInfo

Общее
Полное имя : D:\FILM\F-2014\Disk-48\Bo.Nefotzetz.Million.1977.[vo.satkur+heb].AC3.Rus\Bo.Nefotzetz.Million.1977.[vo.satkur+heb].AC3.Rus.avi
Формат : AVI
Формат/Информация : Audio Video Interleave
Размер файла : 1,35 Гбайт
Продолжительность : 1 ч. 30 м.
Общий поток : 2132 Кбит/сек
Программа кодирования : VirtualDubModRus 1.5.10.2 (build 2542/release)
Библиотека кодирования : VirtualDubMod build 2542/release
Видео
Идентификатор : 0
Формат : MPEG-4 Visual
Профиль формата : [email protected]
Параметр BVOP формата : Нет
Параметр QPel формата : Нет
Параметр GMC формата : Без точки перехода
Параметр матрицы формата : Default (H.263)
Идентификатор кодека : XVID
Идентификатор кодека/Подсказка : XviD
Продолжительность : 1 ч. 30 м.
Битрейт : 1733 Кбит/сек
Ширина : 512 пикселей
Высота : 384 пикселя
Соотношение сторон : 4:3
Частота кадров : 25,000 кадров/сек
Цветовое пространство : YUV
Субдискретизация насыщенности : 4:2:0
Битовая глубина : 8 бит
Тип развёртки : Прогрессивная
Метод сжатия : С потерями
Бит/(Пиксели*Кадры) : 0.353
Размер потока : 1,10 Гбайт (81%)
Библиотека кодирования : Lavc52.84.0
Аудио #1
Идентификатор : 1
Формат : AC-3
Формат/Информация : Audio Coding 3
Расширение режима : CM (complete main)
Параметр Endianness формата : Big
Идентификатор кодека : 2000
Продолжительность : 1 ч. 30 м.
Вид битрейта : Постоянный
Битрейт : 192 Кбит/сек
Каналы : 2 канала
Расположение каналов : Front: L R
Частота : 48,0 КГц
Битовая глубина : 16 бит
Метод сжатия : С потерями
Размер потока : 125 Мбайт (9%)
Выравнивание : Разделение по промежуткам
Продолжительность промежутка : 40 мс. (1,00 видеокадр)
Время предзагрузки промежутка : 500 мс.
Аудио #2
Идентификатор : 2
Формат : AC-3
Формат/Информация : Audio Coding 3
Расширение режима : CM (complete main)
Параметр Endianness формата : Big
Идентификатор кодека : 2000
Продолжительность : 1 ч. 30 м.
Вид битрейта : Постоянный
Битрейт : 192 Кбит/сек
Каналы : 2 канала
Расположение каналов : Front: L R
Частота : 48,0 КГц
Битовая глубина : 16 бит
Метод сжатия : С потерями
Размер потока : 125 Мбайт (9%)
Выравнивание : Разделение по промежуткам
Продолжительность промежутка : 40 мс. (1,00 видеокадр)
Время предзагрузки промежутка : 500 мс.

Скриншот c названием фильма

If your ratio falls below 0.3, you will not be able to download Torrents! More about the rating.

[erzsebet.pl].t51723.torrent
Torrent: Registered   [ 2017-12-11 02:36 ]

Download .torrent

Download

14 KB

Status: checked
Completed: 16 times
Size: 1.35 GB
terms.php

#1

11-Dec-2017 01:27

[Profile]  [PM] 
Display posts:    

You cannot post new topics in this forum
You cannot reply to topics in this forum
You cannot edit your posts in this forum
You cannot delete your posts in this forum
You cannot vote in polls in this forum
You cannot attach files in this forum
You can download files in this forum
User agreement
For copyright holders
Advertise on this site

Скачайте на халяву через торрент на трекере erzsebet.pl

!ATTENTION!
The site does not give electronic versions of products, and is engaged only in a collecting and cataloguing of the references sent and published at a forum by our readers. If you are the legal owner of any submitted material and do not wish that the reference to it was in our catalogue, contact us and we shall immediately remove her. Files for an exchange on tracker are given by users of a site, and the administration does not bear the responsibility for their maintenance. The request to not fill in the files protected by copyrights, and also files of the illegal maintenance!