Колодец смерти / Мёртвая яма / Голый череп / Dead Pit (Бретт Леонард / Brett Leonard) [1989, США, ужасы, триллер, DVDRip] AVO (Антон Алексеев) + AVO (Александр Кашкин) + AVO (Михаил Иванов)

DL-List and Torrent activity
Size:  1.72 GB   |    Registered:  2 years 10 months   |    Completed:  16 times
Seeders:  3  
 
   
 
 

Max Levien ®

Longevity:
2 years 10 months
Posts:
20374

[Quote] 

Колодец смерти / Мёртвая яма / Голый череп / Dead Pit
Страна: США
Жанр: ужасы, триллер
Год выпуска: 1989
Продолжительность: 01:41:56
Перевод: Авторский (одноголосый закадровый) Антон Алексеев
Перевод 2: Авторский (одноголосый закадровый) Александр Кашкин
Перевод 3: Авторский (одноголосый закадровый) Михаил Иванов
Субтитры: нет
Режиссер: Бретт Леонард / Brett Leonard
В ролях: Джереми Слэйт, Шерил Лоусон, Стеффен Грегори Фостер, Дэнни Гокнауэр, Геа Гетц
Описание: 1. Доктор-маньяк убивает своих пациентов. Происходит весь этот мрак в психиатрической лечебнице. Один из врачей заподозрил неладное и застал коллегу за убийством очередной жертвы в небольшом подвальном помещении, напоминающем колодец, заваленном расчлененными и окровавленными трупами. Тому это, естественно, не понравилось и убийцу пришлось застрелить. Но через двадцать лет доктор-мясник возвращается, чтобы вновь заняться любимым делом. Фильм, несмотря на простоватый сюжет, снят очень добротно и держит в напряжении до самого конца. Кстати, Леонард не новичок в ужасах - он снял "Газонокосильщика".
2. В психиатрической клинике зверствует доктор Рэмзи. Исследование человеческого безумия сделало его самого таковым. Он совершает над своими пациентами кошмарные эксперименты в подвале, который находится у него в клинике за секретной дверью, особо обожая делать пациентам лоботомию, а потом сваливает покойников в общую яму, находящуюся тут же возле операционного стола. Его напарник, доктор Сван, не мог допустить такого беспредела и застрелил кошмарного доктора, а всё это безобразие замуровал. Он не хотел подвергать свою репутацию опасности. Спустя 20 лет после происшествия в психушку приезжает очередная партия больных, среди которых есть грудастая девушка по имени Джейн. Она страдает амнезией и приступами кошмаров. Появившись в здании клиники, она начинает периодически замечать знакомого нам зловещего доктора (уже в мертвецком обличье), но одетого всё так же по форме, как и подобает врачу. Джейн знакомится с другим больным - бывшим военным-подрывником по имени Кристиан. В стенах больницы начинают пропадать сначала врачи, а позже и пациенты. Уже ни у кого не остаётся сомнений в том, что страшный доктор Рэмзи вернулся из ада. И вернулся не один, а привёл с собой целую армию зомби, созданную им из его бывших подопытных...
Колодец смерти является, пожалуй, культовым фильмом для доброго числа петербуржцев – поклонников фильмов ужасов. Во времена благоденствия "Шестого канала", пока его не поглотил СТС, этот хоррор показывали наряду с Тень смерти и Ночь демонов, и очень регулярно. Перед нами замечательная смесь из врачебного ужастика с зомби-фильмом. Громадное количество крови, вместе с ужасающими сценами операционных моментов. Классно выглядят здесь сами зомби, одетые в окровавленные халаты, с явными следами копошения в мозгу. Они никого не едят, а просто вырывают мозги. Убить их можно оригинальным способом – при помощи святой воды, на которую есть освятитель – безумная монашка. Советую смотреть всем поклонникам кровавых фильмов про зомби.
Доп. информация: За исходник спасибо Lucian666
Релиз
Качество видео: DVDRip
Формат видео: AVI
Видео: 704x400 (1.76:1), 23.976 fps, XviD build 50 ~1829 kbps avg, 0.27 bit/pixel
Аудио: 48 kHz, AC3 Dolby Digital, 2/0 (L,R) ch, ~192 kbps Антон Алексеев
Аудио 2: 48 kHz, AC3 Dolby Digital, 2/0 (L,R) ch, ~192 kbps Александр Кашкин [отдельно]
Аудио 3: 48 kHz, AC3 Dolby Digital, 2/0 (L,R) ch, ~192 kbps Михаил Иванов [отдельно]

MediaInfo

Колодец смерти - Dead Pit\Колодец смерти - Dead Pit.avi
Format : AVI
Format/Info : Audio Video Interleave
File size : 1.45 GiB
Duration : 1h 42mn
Overall bit rate : 2 030 Kbps
Movie name : Колодец смерти - Dead Pit
Director : Rip by Edich2
Writing application : VirtualDubMod 1.5.10.2 (build 2540/release)
Comment : erzsebet.org
Video
ID : 0
Format : MPEG-4 Visual
Format profile : Advanced [email protected]
Format settings, BVOP : 2
Format settings, QPel : No
Format settings, GMC : No warppoints
Format settings, Matrix : Custom
Codec ID : XVID
Codec ID/Hint : XviD
Duration : 1h 42mn
Bit rate : 1 830 Kbps
Width : 704 pixels
Height : 400 pixels
Display aspect ratio : 16:9
Frame rate : 23.976 fps
Color space : YUV
Chroma subsampling : 4:2:0
Bit depth : 8 bits
Scan type : Progressive
Compression mode : Lossy
Bits/(Pixel*Frame) : 0.271
Stream size : 1.30 GiB (90%)
Writing library : XviD 1.2.1 (UTC 2008-12-04)
Audio
ID : 1
Format : AC-3
Format/Info : Audio Coding 3
Mode extension : CM (complete main)
Format settings, Endianness : Big
Codec ID : 2000
Duration : 1h 41mn
Bit rate mode : Constant
Bit rate : 192 Kbps
Channel count : 2 channels
Channel positions : Front: L R
Sampling rate : 48.0 KHz
Bit depth : 16 bits
Compression mode : Lossy
Stream size : 139 MiB (9%)
Alignment : Split accross interleaves
Interleave, duration : 42 ms (1.01 video frame)
Interleave, preload duration : 500 ms

Скриншоты


If your ratio falls below 0.3, you will not be able to download Torrents! More about the rating.

[erzsebet.pl].t51724.torrent
Torrent: Registered   [ 2017-12-11 02:36 ]

Download .torrent

Download

18 KB

Status: checked
Completed: 16 times
Size: 1.72 GB
terms.php

#1

11-Dec-2017 01:27

[Profile]  [PM] 
Display posts:    

You cannot post new topics in this forum
You cannot reply to topics in this forum
You cannot edit your posts in this forum
You cannot delete your posts in this forum
You cannot vote in polls in this forum
You cannot attach files in this forum
You can download files in this forum
User agreement
For copyright holders
Advertise on this site

Скачайте на халяву через торрент на трекере erzsebet.pl

!ATTENTION!
The site does not give electronic versions of products, and is engaged only in a collecting and cataloguing of the references sent and published at a forum by our readers. If you are the legal owner of any submitted material and do not wish that the reference to it was in our catalogue, contact us and we shall immediately remove her. Files for an exchange on tracker are given by users of a site, and the administration does not bear the responsibility for their maintenance. The request to not fill in the files protected by copyrights, and also files of the illegal maintenance!