Черная вдова / Black Widow (Боб Рейфелсон / Bob Rafelson) [1987, США, триллер, криминал, DVDRip] MVO

DL-List and Torrent activity
Size:  744 MB   |    Registered:  2 years 10 months   |    Completed:  16 times
Seeders:  2  
 
   
 
 

Max Levien ®

Longevity:
2 years 10 months
Posts:
20374

[Quote] 

Черная вдова / Black Widow
Год выпуска: 1987
Страна: США
Жанр: триллер, криминал
Продолжительность: 01:37:43.120 (146578 frames)
Перевод: Профессиональный (многоголосый закадровый)
Русские субтитры: нет
Режиссер: Боб Рейфелсон / Bob Rafelson
В ролях: Дебра Уингер, Тереза Расселл, Сами Фрей, Деннис Хоппер, Никол Уильямсон, Терри О`Куинн, Джеймс Хонг, Дайан Лэдд, Д.В. Моффетт, Лоис Смит
Описание: Чувственная и изящная Кэтрин прекрасно устраивается в жизни с помощью мужчин. Ей поразительно везет: один за другим ее обеспеченные мужья умирают от загадочных болезней и завещают любимой жене все, что имеют. Единственный минус такого везения в том, что тяжело избежать подозрений, но ведь богатые так же смертны как все мы. Да и кому придет в голову связывать между собой смерть абсолютно разных людей, в разное время, в далеких друг от друга местах. Тем более никто не заподозрит, что их жены Кэтрин, Мариэль, Маргарет и Рене — одна и та же женщина. Никто, кроме агента ФБР Алекс Барнс. Алекс обнаруживает смертельные сети, расставленные на состоятельных холостяков, но скромную кабинетную мышку никто и слушать не хочет. Кто-то должен спасти жизнь новых жертв, попавших в гибельную паутину очарования, и первым делом ей придется научиться искусству обращения с этим оружием. По зубам ли тихой Алекс хищница Кэтрин? В этой дуэли не будет ни правил, ни секундантов. Один на один. До конца.
Качество: DVDRip
Формат: AVI
Видео кодек: XviD
Аудио кодек: MP3
Видео: 640x336 (1.90:1), 25 fps, XviD MPEG-4 ~927 kbps avg, 0.17 bit/pixel
Audio: 48 kHz, MPEG Layer 3, 2 ch, ~128.00 kbps avg

Медиаинфо

General
Complete name : D:\фильмы\chernaya_vdova_745_[torrents.ru]_by_bm11.avi
Format : AVI
Format/Info : Audio Video Interleave
File size : 744 MiB
Duration : 1h 37mn
Overall bit rate : 1 065 Kbps
Writing application : VirtualDubMod 1.5.10.2 (build 2540/release)
Writing library : VirtualDubMod build 2540/release
Video
Format : MPEG-4 Visual
Format profile : Streaming [email protected]
Format settings, BVOP : Yes
Format settings, QPel : No
Format settings, GMC : No warppoints
Format settings, Matrix : Default
Muxing mode : Packed bitstream
Codec ID : XVID
Codec ID/Hint : XviD
Duration : 1h 37mn
Bit rate : 927 Kbps
Width : 640 pixels
Height : 336 pixels
Display aspect ratio : 1.905
Frame rate : 25.000 fps
Resolution : 24 bits
Colorimetry : 4:2:0
Scan type : Progressive
Bits/(Pixel*Frame) : 0.173
Stream size : 648 MiB (87%)
Writing library : XviD 50
Audio
Format : MPEG Audio
Format version : Version 1
Format profile : Layer 3
Codec ID : 55
Codec ID/Hint : MP3
Duration : 1h 37mn
Bit rate mode : Constant
Bit rate : 128 Kbps
Channel(s) : 2 channels
Sampling rate : 48.0 KHz
Resolution : 16 bits
Stream size : 89.5 MiB (12%)
Alignment : Aligned on interleaves
Interleave, duration : 40 ms (1.00 video frame)
Interleave, preload duration : 504 ms
Релиз группы:
--

If your ratio falls below 0.3, you will not be able to download Torrents! More about the rating.

[erzsebet.pl].t51725.torrent
Torrent: Registered   [ 2017-12-11 02:36 ]

Download .torrent

Download

15 KB

Status: checked
Completed: 16 times
Size: 744 MB
terms.php

#1

11-Dec-2017 01:27

[Profile]  [PM] 
Display posts:    

You cannot post new topics in this forum
You cannot reply to topics in this forum
You cannot edit your posts in this forum
You cannot delete your posts in this forum
You cannot vote in polls in this forum
You cannot attach files in this forum
You can download files in this forum
User agreement
For copyright holders
Advertise on this site

Скачайте на халяву через торрент на трекере erzsebet.pl

!ATTENTION!
The site does not give electronic versions of products, and is engaged only in a collecting and cataloguing of the references sent and published at a forum by our readers. If you are the legal owner of any submitted material and do not wish that the reference to it was in our catalogue, contact us and we shall immediately remove her. Files for an exchange on tracker are given by users of a site, and the administration does not bear the responsibility for their maintenance. The request to not fill in the files protected by copyrights, and also files of the illegal maintenance!