Самсон против пиратов / Самсон и пираты / Samson Against the Pirates / Sansone contro i pirati (Танио Боччиа / Tanio Boccia) [1963, Италия, приключения, DVDRip] VO + Original Ita

DL-List and Torrent activity
Size:  1.46 GB   |    Registered:  2 years 10 months   |    Completed:  16 times
Seeders:  3  
 
   
 
 

Max Levien ®

Longevity:
2 years 10 months
Posts:
20374

[Quote] 

Самсон против пиратов / Самсон и пираты / Samson Against the Pirates / Sansone contro i pirati Страна: Италия
Жанр: приключения
Год выпуска: 1963
Продолжительность: 01:18:56
Перевод: Одноголосый закадровый
Субтитры: нет
Оригинальная аудиодорожка: итальянский
Режиссер: Танио Боччиа / Tanio Boccia
В ролях: Кирк Моррис, Маргарет Ли, Даниэле Варгас, Альдо Буфи Ланди, Туллио Альтамура, Адриана Амбези, Франко Перуцци, Джина Серра, Аттилио Доттезио, Калисто Калисти
Описание: Кровожадный пират Мурад (Даниэле Варгас) терроризирует Антильские острова, топя корабли и нападая на прибрежные города. Его люди продают в рабство захваченных моряков и прекрасных пленниц. Одной из похищенных девушек, Аманде (Маргарет Ли), удается бежать. Приняв ее за жертву кораблекрушения, когда она, потерявшая сознание, на плоту приблизилась к рыбацкому судну, рыбаки спасают девушку. Точнее спасает местный герой, прозванный за необычайную силу Самсоном (Кирк Моррис). В его деревушке молодые люди полюбили друг друга. Аманда рассказывает ему свою историю и просит спасти ее сестру, находящуюся в лапах пиратов. Самсон и группа смельчаков решают положить конец бесчинствам Мурада...
Доп. информация: Исходный ДВД http://erzsebet.org/forum/viewtopic.php?t=4886230
Сэмпл: http://multi-up.com/1018637
Качество видео: DVDRip
Формат видео: AVI
Видео: 704x336 (2.10:1), 25 fps, XviD build 47 ~2242 kbps avg, 0.38 bit/pixel
Аудио 1: 48 kHz, AC3 Dolby Digital, 2/0 (L,R) ch, ~192 kbps русский
Аудио 2: 48 kHz, AC3 Dolby Digital, 2/0 (L,R) ch, ~192 kbps итальянский
Релиз:

MediaInfo

Format : AVI
Format/Info : Audio Video Interleave
File size : 1.46 GiB
Duration : 1h 18mn
Overall bit rate : 2 642 Kbps
Video
ID : 0
Format : MPEG-4 Visual
Format profile : Advanced [email protected]
Format settings, BVOP : 1
Format settings, QPel : No
Format settings, GMC : No warppoints
Format settings, Matrix : Default (MPEG)
Codec ID : XVID
Codec ID/Hint : XviD
Duration : 1h 18mn
Bit rate : 2 244 Kbps
Width : 704 pixels
Height : 336 pixels
Display aspect ratio : 2.095
Frame rate : 25.000 fps
Color space : YUV
Chroma subsampling : 4:2:0
Bit depth : 8 bits
Scan type : Progressive
Compression mode : Lossy
Bits/(Pixel*Frame) : 0.379
Stream size : 1.24 GiB (85%)
Writing library : XviD 1.2.0.dev47 (UTC 2006-11-01)
Audio #1
ID : 1
Format : AC-3
Format/Info : Audio Coding 3
Mode extension : CM (complete main)
Format settings, Endianness : Big
Codec ID : 2000
Duration : 1h 18mn
Bit rate mode : Constant
Bit rate : 192 Kbps
Channel(s) : 2 channels
Channel positions : Front: L R
Sampling rate : 48.0 KHz
Bit depth : 16 bits
Compression mode : Lossy
Stream size : 108 MiB (7%)
Alignment : Split accross interleaves
Interleave, duration : 40 ms (1.00 video frame)
Interleave, preload duration : 500 ms
Audio #2
ID : 2
Format : AC-3
Format/Info : Audio Coding 3
Mode extension : CM (complete main)
Format settings, Endianness : Big
Codec ID : 2000
Duration : 1h 18mn
Bit rate mode : Constant
Bit rate : 192 Kbps
Channel(s) : 2 channels
Channel positions : Front: L R
Sampling rate : 48.0 KHz
Bit depth : 16 bits
Compression mode : Lossy
Stream size : 108 MiB (7%)
Alignment : Split accross interleaves
Interleave, duration : 40 ms (1.00 video frame)
Interleave, preload duration : 500 ms

Скриншот c названием фильма

Огромное спасибо Lucian666за раздачу исходного ДВД и Нордер за работу со звуком!

If your ratio falls below 0.3, you will not be able to download Torrents! More about the rating.

[erzsebet.pl].t51732.torrent
Torrent: Registered   [ 2017-12-11 02:36 ]

Download .torrent

Download

15 KB

Status: checked
Completed: 16 times
Size: 1.46 GB
terms.php

#1

11-Dec-2017 01:27

[Profile]  [PM] 
Display posts:    

You cannot post new topics in this forum
You cannot reply to topics in this forum
You cannot edit your posts in this forum
You cannot delete your posts in this forum
You cannot vote in polls in this forum
You cannot attach files in this forum
You can download files in this forum
User agreement
For copyright holders
Advertise on this site

Скачайте на халяву через торрент на трекере erzsebet.pl

!ATTENTION!
The site does not give electronic versions of products, and is engaged only in a collecting and cataloguing of the references sent and published at a forum by our readers. If you are the legal owner of any submitted material and do not wish that the reference to it was in our catalogue, contact us and we shall immediately remove her. Files for an exchange on tracker are given by users of a site, and the administration does not bear the responsibility for their maintenance. The request to not fill in the files protected by copyrights, and also files of the illegal maintenance!