Флетч / Fletch (Майкл Ритчи / Michael Ritchie) [1985, США, комедия, криминал, детектив, VHSRip] [Fullscreen] DVO (Премьер Мультимедия)

DL-List and Torrent activity
Size:  1.45 GB   |    Registered:  2 years 10 months   |    Completed:  16 times
Seeders:  2  
 
   
 
 

Max Levien ®

Longevity:
2 years 10 months
Posts:
20374

[Quote] 

ФлетчFletch- Страна: США
Жанр: комедия, криминал, детектив
Год выпуска: 1985
Продолжительность: 01:34:04-Перевод: Профессиональный (двухголосый, закадровый)
Режиссер: Майкл Ритчи / Michael Ritchie
В ролях: Чеви Чейз (Irwin «Fletch» Fletcher), Джо Дон Бейкер (Chief Jerry Karlin), Дана Уиллер-Николсон (Gail Stanwyk), Ричард Либертини (Frank Walker), Тим Мэтисон (Alan Stanwyk), М. Эммет Уолш (Dr. Joseph Dolan), Джордж Уэндт (Fat Sam), Кеннет Марс (Stanton Boyd), Джина Дэвис (Larry), Билл Хендерсон (Speaker), Уильям Трейлор (Ted Underhill), Джордж Уайнер (Marvin Gillet)-Описание: Этого безумного парня друзья зовут просто Флетч, и он — великий мастер перевоплощения и прирожденный хамелеон. Его журналистские расследования — всегда головокружительные авантюры и удивительные приключения.
Как-то раз, готовя очерк о торговле наркотиками, Флетч переодевшись бомжом, отправляется собирать информацию. Но вместо информации, Флетч получает совершенно невероятное предложение.-
MPAA: PG - Рекомендуется присутствие родителей-Здесь раздается полноэкранная версия фильма, издававшаяся только на VHS . Качеством не блещет. Смотрим скриншоты и качаем сэмпл.
Перевод впервые на трекере-За исходник большое спасибо Shurik-scorp
Роли озвучивали Андрей Градов и Ирина Маликова.-Качество: VHSRip
Контейнер: AVI
Видео: 704x528 (1.33:1), 25 fps, XviD build 65 ~2007 kbps avg, 0.22 bit/pixel
Аудио: 48 kHz, AC3 Dolby Digital, 2/0 (L,R) ch, ~192.00 kbps avg-СЭМПЛ - http://multi-up.com/1034183-

Скриншоты

MediaInfo

General
Complete name : E:\Movies\Fletch.1985.FS.VHSRip.DVO.avi
Format : AVI
Format/Info : Audio Video Interleave
File size : 1.45 GiB
Duration : 1h 34mn
Overall bit rate : 2 209 Kbps
Writing application : VirtualDubMod 1.5.10.2 (build 2542/release)
Writing library : VirtualDubMod build 2542/release
Video
ID : 0
Format : MPEG-4 Visual
Format profile : Advanced [email protected]
Format settings, BVOP : 1
Format settings, QPel : No
Format settings, GMC : No warppoints
Format settings, Matrix : Custom
Codec ID : XVID
Codec ID/Hint : XviD
Duration : 1h 34mn
Bit rate : 2 008 Kbps
Width : 704 pixels
Height : 528 pixels
Display aspect ratio : 4:3
Frame rate : 25.000 fps
Color space : YUV
Chroma subsampling : 4:2:0
Bit depth : 8 bits
Scan type : Progressive
Compression mode : Lossy
Bits/(Pixel*Frame) : 0.216
Stream size : 1.32 GiB (91%)
Writing library : XviD 65
Audio
ID : 1
Format : AC-3
Format/Info : Audio Coding 3
Mode extension : CM (complete main)
Format settings, Endianness : Big
Codec ID : 2000
Duration : 1h 34mn
Bit rate mode : Constant
Bit rate : 192 Kbps
Channel(s) : 2 channels
Channel positions : Front: L R
Sampling rate : 48.0 KHz
Bit depth : 16 bits
Compression mode : Lossy
Stream size : 129 MiB (9%)
Alignment : Split accross interleaves
Interleave, duration : 40 ms (1.00 video frame)
Interleave, preload duration : 500 ms

If your ratio falls below 0.3, you will not be able to download Torrents! More about the rating.

[erzsebet.pl].t51733.torrent
Torrent: Registered   [ 2017-12-11 02:36 ]

Download .torrent

Download

15 KB

Status: checked
Completed: 16 times
Size: 1.45 GB
terms.php

#1

11-Dec-2017 01:27

[Profile]  [PM] 
Display posts:    

You cannot post new topics in this forum
You cannot reply to topics in this forum
You cannot edit your posts in this forum
You cannot delete your posts in this forum
You cannot vote in polls in this forum
You cannot attach files in this forum
You can download files in this forum
User agreement
For copyright holders
Advertise on this site

Скачайте на халяву через торрент на трекере erzsebet.pl

!ATTENTION!
The site does not give electronic versions of products, and is engaged only in a collecting and cataloguing of the references sent and published at a forum by our readers. If you are the legal owner of any submitted material and do not wish that the reference to it was in our catalogue, contact us and we shall immediately remove her. Files for an exchange on tracker are given by users of a site, and the administration does not bear the responsibility for their maintenance. The request to not fill in the files protected by copyrights, and also files of the illegal maintenance!