Таинственный сад / The Secret Garden (Алан Гринт / Alan Grint) [1987, Великобритания, драма, семейный, VHSRip] Sub (rus, eng) + original eng

DL-List and Torrent activity
Size:  895 MB   |    Registered:  2 years 10 months   |    Completed:  16 times
Seeders:  5  
 
   
 
 

Max Levien ®

Longevity:
2 years 10 months
Posts:
20374

[Quote] 

Таинственный сад / The Secret Garden
Страна: Великобритания
Жанр: драма, семейный
Год выпуска: 1987
Продолжительность: 01:39:41
Перевод: Субтитры
Субтитры: русские, английские
Оригинальная аудиодорожка: английский
Режиссер: Алан Гринт / Alan Grint
В ролях: Дженни Джеймс, Баррет Оливер, Джэдриен Стил, Майкл Хордерн, Билли Уайтлоу, Дерек Джекоби, Люси Гютеридж, Колин Фёрт, Джулиан Гловер, Кэсси Стюарт
Описание: Действие происходит в XIX веке. Мэри Леннокс жила вместе со своими родителями в Индии. Её родители заболели чумой и девочка осталась сиротой. Мэри забирает жить к себе в Великобританию дядя Арчибальд. Теперь Мэри живёт в мрачном особняке своего дяди. Рядом с домом также есть странный сад, по ночам там слышны крики. С этим садом связана какая-то тайна.
Дядя Арчибальд тоже довольно странный, хотя он и добрый, видимо он от чего-то страдает. Мэри знакомится с мальчиком Диконом, сыном садовника. Вместе дети пытаются разгадать загадку таинственного сада и помочь дяде Арчибальду преодолеть свою печаль.
Доп. информация: За предоставленное видео благодарность Justin15. За новый перевод огромная благодарность daэna11 и её знакомой. Синхронизация субтитров моя (это мой первый опыт, так что просьба сильно не ругаться).
В Интернете нашлись английские субтитры только для слабослышащих, именно они и выложены в раздаче после правки ошибок и тайминга. Также выложены русские субтитры rus (диалоги, надписи).Внимание! Старый перевод заменён на новый. Старый перевод для слабослышащих исключён из раздачи. Просьба перекачать торрент!sample
Качество видео: VHSRip
Формат видео: AVI
Видео: XVID 640x480 (1.33:1) 29.97fps ~1054kbps
Аудио: MP3 48,0 kHz 192kbps 2 channels ~192kbps
Формат субтитров: softsub (SRT)

MediaInfo

Общее
Полное имя : C:\Documents and Settings\Name\Мои документы\Downloads\The Secret Garden (1987)\The Secret Garden (1987 VHSRip).avi
Формат : AVI
Формат/Информация : Audio Video Interleave
Размер файла : 895 Мбайт
Продолжительность : 1 ч. 39 м.
Общий поток : 1255 Кбит/сек
Программа кодирования : VirtualDubMod 1.5.4.1 (build 2178/release)
Библиотека кодирования : VirtualDubMod build 2178/release
Видео
Идентификатор : 0
Формат : MPEG-4 Visual
Профиль формата : Advanced [email protected]
Параметр BVOP формата : 1
Параметр QPel формата : Нет
Параметр GMC формата : Без точки перехода
Параметр матрицы формата : Выборочная
Идентификатор кодека : XVID
Идентификатор кодека/Подсказка : XviD
Продолжительность : 1 ч. 39 м.
Битрейт : 1054 Кбит/сек
Ширина : 640 пикселей
Высота : 480 пикселей
Соотношение сторон : 4:3
Частота кадров : 29,970 кадров/сек
Цветовое пространство : YUV
Субдискретизация насыщенности : 4:2:0
Битовая глубина : 8 бит
Тип развёртки : Прогрессивная
Метод сжатия : С потерями
Бит/(Пиксели*Кадры) : 0.114
Размер потока : 752 Мбайт (84%)
Библиотека кодирования : XviD 1.2.1 (UTC 2008-12-04)
Аудио
Идентификатор : 1
Формат : MPEG Audio
Версия формата : Version 1
Профиль формата : Layer 3
Режим : Joint stereo
Расширение режима : MS Stereo
Идентификатор кодека : 55
Идентификатор кодека/Подсказка : MP3
Продолжительность : 1 ч. 39 м.
Вид битрейта : Постоянный
Битрейт : 192 Кбит/сек
Каналы : 2 канала
Частота : 48,0 КГц
Метод сжатия : С потерями
Размер потока : 137 Мбайт (15%)
Выравнивание : Соединение по промежуткам
Продолжительность промежутка : 67 мс. (2,00 видеокадра)
Время предзагрузки промежутка : 504 мс.
Библиотека кодирования : LAME3.98r
Настройки программы : -m j -V 4 -q 2 -lowpass 18.6 -b 192

Скриншоты

If your ratio falls below 0.3, you will not be able to download Torrents! More about the rating.

[erzsebet.pl].t51734.torrent
Torrent: Registered   [ 2017-12-11 02:36 ]

Download .torrent

Download

18 KB

Status: checked
Completed: 16 times
Size: 895 MB
terms.php

#1

11-Dec-2017 01:27

[Profile]  [PM] 
Display posts:    

You cannot post new topics in this forum
You cannot reply to topics in this forum
You cannot edit your posts in this forum
You cannot delete your posts in this forum
You cannot vote in polls in this forum
You cannot attach files in this forum
You can download files in this forum
User agreement
For copyright holders
Advertise on this site

Скачайте на халяву через торрент на трекере erzsebet.pl

!ATTENTION!
The site does not give electronic versions of products, and is engaged only in a collecting and cataloguing of the references sent and published at a forum by our readers. If you are the legal owner of any submitted material and do not wish that the reference to it was in our catalogue, contact us and we shall immediately remove her. Files for an exchange on tracker are given by users of a site, and the administration does not bear the responsibility for their maintenance. The request to not fill in the files protected by copyrights, and also files of the illegal maintenance!