Это опять я! / Я снова здесь / Снова привет / Hello Again (Фрэнк Перри / Frank Perry) [1987, США, мелодрама, комедия, VHSRip] [FullScreen] AVO (Антон Пронин)

DL-List and Torrent activity
Size:  1.37 GB   |    Registered:  2 years 10 months   |    Completed:  16 times
Seeders:  4  
 
   
 
 

Max Levien ®

Longevity:
2 years 10 months
Posts:
20374

[Quote] 

Это опять я! / Я снова здесь / Снова привет / Hello Again
«Сегодня умерла. А на завтра, снова здесь»
[FullScreen]
Страна: США
Жанр: мелодрама, комедия
Год выпуска: 1987
Продолжительность: 01:36:07
Перевод: Авторский (одноголосый закадровый) Антон Пронин
Субтитры: нет
Режиссер: Фрэнк Перри / Frank Perry
В ролях: Шелли Лонг, Джудит Айви, Гэбриел Бирн, Корбин Бернсен, Села Уорд, Остин Пендлтон, Кэрри Най, Роберт Льюис, Мэдлин Поттер, Тор Филдс
Описание: Аннотация от alenavova
Люси Чедмэн заглянула к сестричке Зелде, отведала китайской пищи, поперхнулась, подавилась и... "сыграла в ящик". Ее муж (точнее, вдовец) погоревал немного и женился вновь - на подружке Люси. Взрослый сын преждевременно скончавшейся дамочки тоже утешился довольно быстро - в обществе своей невесты. Никому никакого дела до Люси, отбывшей в мир иной, уже не было. Кроме Зелды, которая оплакивала свою сестру круглый год напролет, и днем и ночью, и выискивала в древних медицинских рукописях способы воскрешения мертвых. И нашла-таки!.. Актриса Шелли Лонг - точное попадание в этой картине, жанр которой можно было бы определить примерно как "мистическая (формально) и романтическая (фактически) слегка-комедия и сильно-мелодрама". По роману Сьюзен Айзекс.
Доп. информация: Оцифровка VHS (личный архив) и получение VHSRip alenavova
Эксклюзив для erzsebet.org. При размещении данного релиза на других сайтах ссылка на автора alenavova обязательна.
Релиз
Сэмпл: https://yadi.sk/i/pNJkt7QFmL75t
Качество видео: VHSRip
Формат видео: AVI
Видео: 704x528 (1.33:1), 25 fps, XviD build 73 ~1835 kbps avg, 0.20 bit/pixel
Аудио: 48 kHz, AC3 Dolby Digital, 2/0 (L,R) ch, ~192 kbps

MediaInfo

Это опять я - Hello Again (by alenavova).avi
Format : AVI
Format/Info : Audio Video Interleave
File size : 1.37 GiB
Duration : 1h 36mn
Overall bit rate : 2 037 Kbps
Movie name : Это опять я - Hello Again (by alenavova)
Director : by alenavova
Writing application : VirtualDubMod 1.5.10.3 | www.virtualdub-fr.org || (build 2550/release)
Copyright : Edich2
Comment : erzsebet.org
Video
ID : 0
Format : MPEG-4 Visual
Format profile : Advanced [email protected]
Format settings, BVOP : 1
Format settings, QPel : No
Format settings, GMC : No warppoints
Format settings, Matrix : Custom
Codec ID : XVID
Codec ID/Hint : XviD
Duration : 1h 36mn
Bit rate : 1 836 Kbps
Width : 704 pixels
Height : 528 pixels
Display aspect ratio : 4:3
Frame rate : 25.000 fps
Color space : YUV
Chroma subsampling : 4:2:0
Bit depth : 8 bits
Scan type : Progressive
Compression mode : Lossy
Bits/(Pixel*Frame) : 0.198
Stream size : 1.23 GiB (90%)
Writing library : XviD 73
Audio
ID : 1
Format : AC-3
Format/Info : Audio Coding 3
Mode extension : CM (complete main)
Format settings, Endianness : Big
Codec ID : 2000
Duration : 1h 36mn
Bit rate mode : Constant
Bit rate : 192 Kbps
Channel(s) : 2 channels
Channel positions : Front: L R
Sampling rate : 48.0 KHz
Bit depth : 16 bits
Compression mode : Lossy
Stream size : 132 MiB (9%)
Alignment : Split accross interleaves
Interleave, duration : 40 ms (1.00 video frame)
Interleave, preload duration : 500 ms

Скриншоты


If your ratio falls below 0.3, you will not be able to download Torrents! More about the rating.

[erzsebet.pl].t51737.torrent
Torrent: Registered   [ 2017-12-11 02:36 ]

Download .torrent

Download

14 KB

Status: checked
Completed: 16 times
Size: 1.37 GB
terms.php

#1

11-Dec-2017 01:27

[Profile]  [PM] 
Display posts:    

You cannot post new topics in this forum
You cannot reply to topics in this forum
You cannot edit your posts in this forum
You cannot delete your posts in this forum
You cannot vote in polls in this forum
You cannot attach files in this forum
You can download files in this forum
User agreement
For copyright holders
Advertise on this site

Скачайте на халяву через торрент на трекере erzsebet.pl

!ATTENTION!
The site does not give electronic versions of products, and is engaged only in a collecting and cataloguing of the references sent and published at a forum by our readers. If you are the legal owner of any submitted material and do not wish that the reference to it was in our catalogue, contact us and we shall immediately remove her. Files for an exchange on tracker are given by users of a site, and the administration does not bear the responsibility for their maintenance. The request to not fill in the files protected by copyrights, and also files of the illegal maintenance!