Восставший из ада 2 / Hellbound: Hellraiser II (Тони Рэндел / Tony Randel) [1988, Великобритания, США, ужасы, триллер, BDRip-AVC] MVO (Варус Видео) + 4х AVO (Готлиб, Иванов, Ошурков, Дольский)

DL-List and Torrent activity
Size:  1.87 GB   |    Registered:  2 years 10 months   |    Completed:  16 times
Seeders:  2   Leechers:  1   Show peers in full details
 
   
 
 

Max Levien ®

Longevity:
2 years 10 months
Posts:
20374

[Quote] 

Восставший из ада 2: дорога в ад / Hellbound: Hellraiser II
Страна: Великобритания - США
Жанр: ужасы, триллер
Год выпуска: 1988
Продолжительность: 01:39:04
Перевод: Профессиональный (многоголосый закадровый) Варус Видео
Перевод 2: Авторский (одноголосый закадровый) М.Ошурков
Перевод 3: Авторский (одноголосый закадровый) А. Готлиб (отдельно)
Перевод 4: Авторский (одноголосый закадровый) М. Иванов (отдельно)
Перевод 5: Авторский (одноголосый закадровый) А. Дольский (отдельно)
Субтитры: нет
Оригинальная аудиодорожка: нет
Режиссер: Тони Рэндел / Tony Randel
В ролях: Даг Брэдли, Клэр Хиггинс, Эшли Лоуренс, Кеннет Крэнэм, Имоджен Бурман, Шон Чэпман, Уильям Хоуп, Барби Вильде, Саймон Бэмфорд, Николас Винс
Описание: В наш мир возвращается мачеха Кристины Джулия, сгинувшая в геенне огненной в финале первой части фильма. Для восстановления своего физического облика ей приходится использовать те же малоприглядные средства, что в свое время и Фрэнку.
В это же время Кристина, содержащаяся в психиатрической лечебнице, решает спасти своего томящегося в потусторонней неволе отца, для чего ей снова необходимо проникнуть за ту не всегда видимую и не всегда прочную грань, которая отделяет мир живых от мира не очень живых…
Сэмпл: http://multi-up.com/985279
Качество видео: BDRip-AVC Источник
Формат видео: MKV
Видео: H.264, 1152x624, 23.976 fps, 1 742 Kbps, 0.101 bit/pixel
Аудио: AC3 48,0 КГц 2 ch 192 Кбит/сек Варус Видео
Аудио 2: AC3 48,0 КГц 2 ch 192 Кбит/сек Ошурков
Аудио 3: AC3 48,0 КГц 2 ch 192 Кбит/сек Готлиб
Аудио 4: AC3 48,0 КГц 2 ch 192 Кбит/сек Иванов
Аудио 5: AC3 48,0 КГц 2 ch 192 Кбит/сек Дольский

Благодарности

За дорожку Иванова спасибо Fikaloid, работа со звуком alex7691
За дорожку Варус Видео спасибо плят, работа со звуком alex7691
Все остальное взято с hdclub

MediaInfo

Общее
Уникальный идентификатор : 199107591529123017841572902267094046006 (0x95CABA2E3D9A008A8C508057CC4C1536)
Полное имя : C:\Users\Александр\Desktop\Восставший из ада-2\Hellraiser.2.1988.mkv
Формат : Matroska
Версия формата : Version 4 / Version 2
Размер файла : 1,47 Гбайт
Продолжительность : 1 ч. 39 м.
Общий поток : 2127 Кбит/сек
Дата кодирования : UTC 2014-01-30 07:49:55
Программа кодирования : mkvmerge v6.7.0 ('Back to the Ground') 32bit built on Jan 8 2014 15:03:17
Библиотека кодирования : libebml v1.3.0 + libmatroska v1.4.1
Видео
Идентификатор : 1
Формат : AVC
Формат/Информация : Advanced Video Codec
Профиль формата : [email protected]
Параметр CABAC формата : Да
Параметр ReFrames формата : 8 кадров
Идентификатор кодека : V_MPEG4/ISO/AVC
Продолжительность : 1 ч. 39 м.
Битрейт : 1742 Кбит/сек
Ширина : 1152 пикселя
Высота : 624 пикселя
Соотношение сторон : 1,85:1
Режим частоты кадров : Постоянный
Частота кадров : 23,976 кадра/сек
Цветовое пространство : YUV
Субдискретизация насыщенности : 4:2:0
Битовая глубина : 8 бит
Тип развёртки : Прогрессивная
Бит/(Пиксели*Кадры) : 0.101
Размер потока : 1,18 Гбайт (80%)
Заголовок : Bentley
Библиотека кодирования : x264 core 115 r1937 aa21558
Настройки программы : cabac=1 / ref=8 / deblock=1:-1:-1 / analyse=0x3:0x133 / me=umh / subme=7 / psy=1 / psy_rd=1.00:0.10 / mixed_ref=1 / me_range=16 / chroma_me=1 / trellis=2 / 8x8dct=1 / cqm=0 / deadzone=21,11 / fast_pskip=0 / chroma_qp_offset=-3 / threads=6 / sliced_threads=0 / nr=0 / decimate=1 / interlaced=0 / bluray_compat=0 / constrained_intra=0 / bframes=3 / b_pyramid=2 / b_adapt=2 / b_bias=0 / direct=3 / weightb=1 / open_gop=0 / weightp=2 / keyint=250 / keyint_min=23 / scenecut=40 / intra_refresh=0 / rc_lookahead=50 / rc=2pass / mbtree=1 / bitrate=1742 / ratetol=1.0 / qcomp=0.60 / qpmin=0 / qpmax=69 / qpstep=4 / cplxblur=20.0 / qblur=0.5 / ip_ratio=1.40 / aq=1:1.00
Язык : English
Default : Да
Forced : Нет
Аудио #1
Идентификатор : 2
Формат : AC-3
Формат/Информация : Audio Coding 3
Расширение режима : CM (complete main)
Параметр Endianness формата : Big
Идентификатор кодека : A_AC3
Продолжительность : 1 ч. 39 м.
Вид битрейта : Постоянный
Битрейт : 192 Кбит/сек
Каналы : 2 канала
Расположение каналов : Front: L R
Частота : 48,0 КГц
Битовая глубина : 16 бит
Метод сжатия : С потерями
Размер потока : 136 Мбайт (9%)
Default : Да
Forced : Нет
Аудио #2
Идентификатор : 3
Формат : AC-3
Формат/Информация : Audio Coding 3
Расширение режима : CM (complete main)
Параметр Endianness формата : Big
Идентификатор кодека : A_AC3
Продолжительность : 1 ч. 39 м.
Вид битрейта : Постоянный
Битрейт : 192 Кбит/сек
Каналы : 2 канала
Расположение каналов : Front: L R
Частота : 48,0 КГц
Битовая глубина : 16 бит
Метод сжатия : С потерями
Размер потока : 136 Мбайт (9%)
Default : Нет
Forced : Нет

Скриншоты

If your ratio falls below 0.3, you will not be able to download Torrents! More about the rating.

[erzsebet.pl].t51760.torrent
Torrent: Registered   [ 2017-12-11 02:36 ]

Download .torrent

Download

19 KB

Status: checked
Completed: 16 times
Size: 1.87 GB
terms.php

#1

11-Dec-2017 01:26

[Profile]  [PM] 
Display posts:    

You cannot post new topics in this forum
You cannot reply to topics in this forum
You cannot edit your posts in this forum
You cannot delete your posts in this forum
You cannot vote in polls in this forum
You cannot attach files in this forum
You can download files in this forum
User agreement
For copyright holders
Advertise on this site

Скачайте на халяву через торрент на трекере erzsebet.pl

!ATTENTION!
The site does not give electronic versions of products, and is engaged only in a collecting and cataloguing of the references sent and published at a forum by our readers. If you are the legal owner of any submitted material and do not wish that the reference to it was in our catalogue, contact us and we shall immediately remove her. Files for an exchange on tracker are given by users of a site, and the administration does not bear the responsibility for their maintenance. The request to not fill in the files protected by copyrights, and also files of the illegal maintenance!