Демпси / Dempsey (Гас Триконис / Gus Trikonis) [1983, США, драма, биография, DVDRip] DVO (НТВ+)

DL-List and Torrent activity
Size:  1.45 GB   |    Registered:  2 years 10 months   |    Completed:  16 times
Seeders:  3  
 
   
 
 

Max Levien ®

Longevity:
2 years 10 months
Posts:
20374

[Quote] 

Демпси / Dempsey
Страна: США
Жанр: драма, биография
Год выпуска: 1983
Продолжительность: 02:23:32
Перевод: Профессиональный (двухголосый закадровый) НТВ+
Субтитры: нет
Оригинальная аудиодорожка: нет
Режиссер: Гас Триконис / Gus Trikonis
В ролях: Трит Уильямс
Сэм Уотерстон
Сэлли Келлермен
Виктория Теннант
Питер Марк Ричман
Джесси Винт
Роберт Харпер
Джон МакЛиам
Бонни Бартлетт
Джеймс Ноубл
Описание: Телевизионный фильм, основанный на реальных событиях жизни боксера в супертяжелом весе Джеке Демпси, в фильме в главных ролях снялись Трит Уильямс и Салли Келлерман. Уильям Харрисон Демпси (William Harrison Dempsey), более известный как Джек Демпси (Jack Dempsey) — американский профессиональный боксёр, чемпион мира в супертяжёлом весе, известный также под прозвищами Кид Блэки и Костолом из Манассы.
Сэмпл: http://multi-up.com/1154868
Качество видео: DVDRip
Формат видео: AVI
Видео: MPEG4, XviD, 720x544 (4:3), 23.976 fps, 1 243 Kbps (0.132 bit/pixel)
Аудио: AC-3, 48.0 KHz, 2 ch, 192 Kbps, CBR

MediaInfo

Общее
Полное имя : M:\Демпси.avi
Формат : AVI
Формат/Информация : Audio Video Interleave
Размер файла : 1,45 Гбайт
Продолжительность : 2 ч. 23 м.
Общий поток : 1445 Кбит/сек
Название фильма : Демпси / Dempsey (1983)
Программа кодирования : VirtualDubMod 1.5.10.2 (build 2540/release)
Библиотека кодирования : VirtualDubMod build 2540/release
Видео
Идентификатор : 0
Формат : MPEG-4 Visual
Профиль формата : Advanced [email protected]
Параметр BVOP формата : 1
Параметр QPel формата : Нет
Параметр GMC формата : Без точки перехода
Параметр матрицы формата : Выборочная
Идентификатор кодека : XVID
Идентификатор кодека/Подсказка : XviD
Продолжительность : 2 ч. 23 м.
Битрейт : 1243 Кбит/сек
Ширина : 720 пикселей
Высота : 544 пикселя
Соотношение сторон : 4:3
Частота кадров : 23,976 (23976/1000) кадра/сек
Цветовое пространство : YUV
Субдискретизация насыщенности : 4:2:0
Битовая глубина : 8 бит
Тип развёртки : Прогрессивная
Метод сжатия : С потерями
Бит/(Пиксели*Кадры) : 0.132
Размер потока : 1,25 Гбайт (86%)
Библиотека кодирования : XviD 1.2.1 (UTC 2008-12-04)
Аудио
Идентификатор : 1
Формат : AC-3
Формат/Информация : Audio Coding 3
Расширение режима : CM (complete main)
Параметр Endianness формата : Big
Идентификатор кодека : 2000
Продолжительность : 2 ч. 23 м.
Вид битрейта : Постоянный
Битрейт : 192 Кбит/сек
Каналы : 2 канала
Расположение каналов : Front: L R
Частота : 48,0 КГц
Частота кадров : 31,250 кадров/сек (1536 spf)
Метод сжатия : С потерями
Размер потока : 197 Мбайт (13%)
Выравнивание : Разделение по промежуткам
Продолжительность промежутка : 42 мс. (1,00 видеокадр)
Время предзагрузки промежутка : 500 мс.
Заголовок : Профессиональный (двухголосый, закадровый) МАТЧ!

Скриншоты


If your ratio falls below 0.3, you will not be able to download Torrents! More about the rating.

[erzsebet.pl].t51772.torrent
Torrent: Registered   [ 2017-12-11 02:36 ]

Download .torrent

Download

15 KB

Status: checked
Completed: 16 times
Size: 1.45 GB
terms.php

#1

11-Dec-2017 01:26

[Profile]  [PM] 
Display posts:    

You cannot post new topics in this forum
You cannot reply to topics in this forum
You cannot edit your posts in this forum
You cannot delete your posts in this forum
You cannot vote in polls in this forum
You cannot attach files in this forum
You can download files in this forum
User agreement
For copyright holders
Advertise on this site

Скачайте на халяву через торрент на трекере erzsebet.pl

!ATTENTION!
The site does not give electronic versions of products, and is engaged only in a collecting and cataloguing of the references sent and published at a forum by our readers. If you are the legal owner of any submitted material and do not wish that the reference to it was in our catalogue, contact us and we shall immediately remove her. Files for an exchange on tracker are given by users of a site, and the administration does not bear the responsibility for their maintenance. The request to not fill in the files protected by copyrights, and also files of the illegal maintenance!