Убей меня снова / Kill me Again (Джон Дал / John Dahl) [1989, США, боевик, триллер, драма, криминал, DVDRip] DVO (Екатеринбург Арт) + Original Eng

DL-List and Torrent activity
Size:  1.37 GB   |    Registered:  2 years 10 months   |    Completed:  16 times
Seeders:  2  
 
   
 
 

Max Levien ®

Longevity:
2 years 10 months
Posts:
20374

[Quote] 

Убей меня снова / Kill me Again-Мастерски спланированное самоубийство может спасти твою жизнь.
- Год выпуска: 1989
Страна: США
Жанр: боевик, триллер, драма, криминал
Продолжительность: 01:34:23
Перевод: Профессиональный (двухголосый закадровый) - Екатеринбург Арт
Субтитры: нет
Оригинальная аудиодорожка: английский
Режиссер: Джон Дал / John Dahl
В ролях: Вэл Килмер (Jack Andrews), Джоэнн Уэлли-Килмер (Fay Forrester), Майкл Мэдсен (Vince Miller), Джонатан Грайс (Alan Swayzie), Пэт Маллиган (Sammy), Ник Дмитрий (Marty), Роберт Шух (Collection Agent #1), Дуан Такер (Collection Agent #2), Молли Фланеджин (Gossipy Motel Clerk), Доминик Динино (Rest Stop Little Boy)-Мировая премьера: 27 октября 1989-Описание: Обворожительная преступница Фэй вместе со своим дружком Винсом ограбила курьеров, перевозивших деньги мафии. «Вырубив» Винса, Фэй скрылась вместе с деньгами. Чтобы замести следы, она обращается за помощью к частному детективу Джеку и просит его сымитировать ее смерть. Попав под власть чар Фэй, Джек соглашается, и как по нотам разыгрывает «иллюзию убийства». Фэй исчезает, а полиция, мафия и Винс начинают охотиться за Джеком, чтобы выяснить, где деньги и …«труп» Фэй.-Исходник видео: с Рутора-Благодарности:
Fikaloid - собственная оцифровка перевода со своей лицензионной видеокассеты от видео-компании Екатеринбург Арт.
JUSTKANT - синхронизация перевода.-Данный перевод на трекере появляется впервые.
На русский язык фильм озвучен студией "Ракурс" по заказу компании Екатеринбург Арт.
Текст читают Алексей Инжеватов и Наталья Гурзо.-
Рейтинг

MPAA: R - Лицам до 17 лет обязательно присутствие взрослого.-Качество видео: DVDRip
Формат видео: AVI -> //SAMPLE//
Видео: XviD, 704x512 (1,375), 25.000 fps, 1619 kbps avg
Аудио:
1 - 48 khz, AC3 Dolby Digital, 2/0 (L,R) ch, ~192 kbps [Екатеринбург Арт] VHSRip
2 - 48 khz, AC3 Dolby Digital, 2/0 (L,R) ch, ~256 kbps [Английский]-Обновление релиза от 04.09.2015. Причина:
Перевод Екатеринбург Арт заменён на более качественный звук.
Просьба перескачать торрент!

MediaInfo

General
Complete name : E:\Торрент Файлы\Будущие Релизы на Трекере\1.35 - 1.46 и более гб\Убей Меня Снова (Екатеринбург Арт + Оригинал).avi
Format : AVI
Format/Info : Audio Video Interleave
File size : 1.37 GiB
Duration : 1h 34mn
Overall bit rate : 2 081 Kbps
Writing application : VirtualDubMod 1.5.10.3 | www.virtualdub-fr.org || (build 2550/release)
Writing library : VirtualDubMod build 2550/release
Video
ID : 0
Format : MPEG-4 Visual
Format profile : Advanced [email protected]
Format settings, BVOP : 1
Format settings, QPel : No
Format settings, GMC : No warppoints
Format settings, Matrix : Default (MPEG)
Codec ID : XVID
Codec ID/Hint : XviD
Duration : 1h 34mn
Bit rate : 1 619 Kbps
Width : 704 pixels
Height : 512 pixels
Display aspect ratio : 1.375
Frame rate : 25.000 fps
Color space : YUV
Chroma subsampling : 4:2:0
Bit depth : 8 bits
Scan type : Progressive
Compression mode : Lossy
Bits/(Pixel*Frame) : 0.180
Stream size : 1.07 GiB (78%)
Writing library : XviD 1.2.1 (UTC 2008-12-04)
Audio #1
ID : 1
Format : AC-3
Format/Info : Audio Coding 3
Mode extension : CM (complete main)
Format settings, Endianness : Big
Codec ID : 2000
Duration : 1h 34mn
Bit rate mode : Constant
Bit rate : 192 Kbps
Channel(s) : 2 channels
Channel positions : Front: L R
Sampling rate : 48.0 KHz
Compression mode : Lossy
Stream size : 130 MiB (9%)
Alignment : Split accross interleaves
Interleave, duration : 40 ms (1.00 video frame)
Interleave, preload duratio : 500 ms
Audio #2
ID : 2
Format : AC-3
Format/Info : Audio Coding 3
Mode extension : CM (complete main)
Format settings, Endianness : Big
Codec ID : 2000
Duration : 1h 34mn
Bit rate mode : Constant
Bit rate : 256 Kbps
Channel(s) : 2 channels
Channel positions : Front: L R
Sampling rate : 48.0 KHz
Compression mode : Lossy
Stream size : 173 MiB (12%)
Alignment : Split accross interleaves
Interleave, duration : 40 ms (1.00 video frame)
Interleave, preload duratio : 500 ms

Скриншот c названием фильма

Скриншоты

If your ratio falls below 0.3, you will not be able to download Torrents! More about the rating.

[erzsebet.pl].t51774.torrent
Torrent: Registered   [ 2017-12-11 02:36 ]

Download .torrent

Download

14 KB

Status: checked
Completed: 16 times
Size: 1.37 GB
terms.php

#1

11-Dec-2017 01:26

[Profile]  [PM] 
Display posts:    

You cannot post new topics in this forum
You cannot reply to topics in this forum
You cannot edit your posts in this forum
You cannot delete your posts in this forum
You cannot vote in polls in this forum
You cannot attach files in this forum
You can download files in this forum
User agreement
For copyright holders
Advertise on this site

Скачайте на халяву через торрент на трекере erzsebet.pl

!ATTENTION!
The site does not give electronic versions of products, and is engaged only in a collecting and cataloguing of the references sent and published at a forum by our readers. If you are the legal owner of any submitted material and do not wish that the reference to it was in our catalogue, contact us and we shall immediately remove her. Files for an exchange on tracker are given by users of a site, and the administration does not bear the responsibility for their maintenance. The request to not fill in the files protected by copyrights, and also files of the illegal maintenance!