Красная Королева убивает семь раз / La Dama rossa uccide sette volte / La Dama rossa uccide sette volte / The Lady in Red Kills Seven Times (Эмилио Миралья / Emilio Miraglia) [1972, Италия, триллер, джало, BDRip] VO (Тимофеев) + VO (cmert) + Sub Rus

DL-List and Torrent activity
Size:  1.68 GB   |    Registered:  2 years 10 months   |    Completed:  16 times
Seeders:  6  
 
   
 
 

Max Levien ®

Longevity:
2 years 10 months
Posts:
20374

[Quote] 

Красная Королева убивает семь раз / La Dama rossa uccide sette volte / La Dama rossa uccide sette volte / The Lady in Red Kills Seven Times
Страна: Италия
Жанр: триллер, джало
Год выпуска: 1972
Продолжительность: 01:39:15
Перевод: Одноголосый закадровый - Тимофеев
Перевод: Одноголосый закадровый - cmert
Субтитры: русские, английские (полные, SDH)
Оригинальная аудиодорожка: итальянский
Режиссер: Эмилио Миралья / Emilio Miraglia
В ролях: Барбара Буше, Марина Мальфатти, Сибил Даннинг, Уго Пальяйи, Марино Масе, Пиа Джанкаро, Рудольф Шюндлер, Мария Антониетта Гуидо, Нино Корда
Описание: Над дворянским родом Вильденбруков довлеет давнее проклятье. Много столетий назад между двумя сёстрами — Красной и Чёрной королевами шла непримиримая вражда, которая закончилась тем, что Чёрная королева убила Красную, нанеся последней семь ножевых ранений. Красная королева восстала из мёртвых и убила Чёрную королеву, а также ещё шестерых связанных с ней людей, дабы возместить всё количество полученных смертельных ранений. С тех пор обстоятельства противостояния Красной и Чёрной королев повторяются каждые сто лет. Наконец настал очередной период возобновления действия давнего проклятья. Мартин Хофман пытается защитить свою невесту Китти Вильденбрук от родового проклятья.
Качество видео: BDRip
Формат видео: AVI
Видео: 720x304 (2.37:1), 23.976 fps, XviD build 73 ~1897 kbps avg, 0.36 bit/pixel
Аудио: 48 kHz, AC3 Dolby Digital, 2/0 (L,R) ch, ~192 kbps - Тимофеев
отдельными файлами:
Аудио: 48 kHz, AC3 Dolby Digital, 2/0 (L,R) ch, ~192 kbps - cmert
Аудио: 48 kHz, AC3 Dolby Digital, 1 ch, ~128 kbps - оригинал

MediaInfo

Общее
Полное имя : H:\La.Dama.rossa.uccide.sette.volte.1972.bdrip_[1.46].avi
Формат : AVI
Формат/Информация : Audio Video Interleave
Размер файла : 1,46 Гбайт
Продолжительность : 1 ч. 39 м.
Общий поток : 2099 Кбит/сек
Программа кодирования : VirtualDubMod 1.5.10.3 | www.virtualdub-fr.org || (build 2550/release)
Библиотека кодирования : VirtualDubMod build 2550/release
Видео
Идентификатор : 0
Формат : MPEG-4 Visual
Профиль формата : Advanced [email protected]
Параметр BVOP формата : 2
Параметр QPel формата : Нет
Параметр GMC формата : Без точки перехода
Параметр матрицы формата : Выборочная
Идентификатор кодека : XVID
Идентификатор кодека/Подсказка : XviD
Продолжительность : 1 ч. 39 м.
Битрейт : 1898 Кбит/сек
Ширина : 720 пикселей
Высота : 304 пикселя
Соотношение сторон : 2,35:1
Частота кадров : 23,976 кадра/сек
Цветовое пространство : YUV
Субдискретизация насыщенности : 4:2:0
Битовая глубина : 8 бит
Тип развёртки : Прогрессивная
Метод сжатия : С потерями
Бит/(Пиксели*Кадры) : 0.362
Размер потока : 1,32 Гбайт (90%)
Библиотека кодирования : XviD 73
Аудио
Идентификатор : 1
Формат : AC-3
Формат/Информация : Audio Coding 3
Расширение режима : CM (complete main)
Параметр Endianness формата : Big
Идентификатор кодека : 2000
Продолжительность : 1 ч. 39 м.
Вид битрейта : Постоянный
Битрейт : 192 Кбит/сек
Каналы : 2 канала
Расположение каналов : Front: L R
Частота : 48,0 КГц
Битовая глубина : 16 бит
Метод сжатия : С потерями
Размер потока : 136 Мбайт (9%)
Выравнивание : Разделение по промежуткам
Продолжительность промежутка : 42 мс. (1,00 видеокадр)
Время предзагрузки промежутка : 500 мс.
Релиз группы:
--

If your ratio falls below 0.3, you will not be able to download Torrents! More about the rating.

[erzsebet.pl].t51775.torrent
Torrent: Registered   [ 2017-12-11 02:36 ]

Download .torrent

Download

18 KB

Status: checked
Completed: 16 times
Size: 1.68 GB
terms.php

#1

11-Dec-2017 01:26

[Profile]  [PM] 
Display posts:    

You cannot post new topics in this forum
You cannot reply to topics in this forum
You cannot edit your posts in this forum
You cannot delete your posts in this forum
You cannot vote in polls in this forum
You cannot attach files in this forum
You can download files in this forum
User agreement
For copyright holders
Advertise on this site

Скачайте на халяву через торрент на трекере erzsebet.pl

!ATTENTION!
The site does not give electronic versions of products, and is engaged only in a collecting and cataloguing of the references sent and published at a forum by our readers. If you are the legal owner of any submitted material and do not wish that the reference to it was in our catalogue, contact us and we shall immediately remove her. Files for an exchange on tracker are given by users of a site, and the administration does not bear the responsibility for their maintenance. The request to not fill in the files protected by copyrights, and also files of the illegal maintenance!