Боевик Джексон / Джексон по кличке "Мотор" / Action Jackson (Крэйг Р. Бэксли / Craig R. Baxley) [1988, США, боевик, триллер, комедия, криминал, BDRip] Dub

DL-List and Torrent activity
Size:  1.45 GB   |    Registered:  2 years 10 months   |    Completed:  16 times
Seeders:  3  
 
   
 
 

Max Levien ®

Longevity:
2 years 10 months
Posts:
20374

[Quote] 

Боевик Джексон / Джексон по кличке "Мотор" / Action Jackson- Год выпуска: 1988
Выпущено: США
Жанр: боевик, триллер, комедия, криминал
Продолжительность: 01:35:58
Перевод: Профессиональный (полное дублирование)
Субтитры: нет-Режиссер: Крэйг Р. Бэксли / Craig R. Baxley
В ролях: Карл Уэзерс, Крэйг Т. Нельсон, Вэнити, Шэрон Стоун, Томас Ф. Уилсон, Билл Дьюк, Роберт Дави, Джек Тибо, Роджер Аарон Браун, Стэн Фостер
О фильме: Сержант полиции Джексон, по прозвищу «Боевик», бросает вызов жестоким убийцам, состоящим на службе у безжалостного автомагната, который рассчитывает путем убийств расчистить себе дорогу к политической власти.
Преследуемый своими же коллегами-полицейскими по сфабрикованному обвинению, Джексон предпринимает отчаянную попытку разоблачения…
Релиз:
Автор: yaroslaigor
Качество: BDRip (источник: / BD-Remux / 1080p)
Формат: AVI
Видео: 704x400 (1.76:1), 23.976 fps, XviD build 65 ~1964 kbps avg, 0.29 bit/pixel
Аудио: 48 kHz, AC3 Dolby Digital, 2/0 (L,R), ~192.00 kbps avg
Размер: 1487.01 Mb (1/3 DVD-R)-

Кадры из фильма

-

Mi

Формат : AVI
Формат/Информация : Audio Video Interleave
Размер файла : 1,45 Гбайт
Продолжительность : 1 ч. 35 м.
Общий поток : 2166 Кбит/сек
Название фильма : Боевик Джексон / Джексон по кличке "Мотор" / Action Jackson (1988) BDRip
Режиссёр : yaroslaigor
Жанр : боевик, триллер, комедия
Программа кодирования : VirtualDubMod 1.5.10.2 (build 2542/release)
Примечание : 18.12.2013
Видео
Идентификатор : 0
Формат : MPEG-4 Visual
Профиль формата : Advanced [email protected]
Параметр BVOP формата : 1
Параметр QPel формата : Нет
Параметр GMC формата : Без точки перехода
Параметр матрицы формата : Выборочная
Идентификатор кодека : XVID
Идентификатор кодека/Подсказка : XviD
Продолжительность : 1 ч. 35 м.
Битрейт : 1965 Кбит/сек
Ширина : 704 пикселя
Высота : 400 пикселей
Соотношение сторон : 16:9
Частота кадров : 23,976 кадра/сек
Цветовое пространство : YUV
Субдискретизация насыщенности : 4:2:0
Битовая глубина : 8 бит
Тип развёртки : Прогрессивная
Метод сжатия : С потерями
Бит/(Пиксели*Кадры) : 0.291
Размер потока : 1,32 Гбайт (91%)
Библиотека кодирования : XviD 65
Аудио
Идентификатор : 1
Формат : AC-3
Формат/Информация : Audio Coding 3
Расширение режима : CM (complete main)
Параметр Endianness формата : Big
Идентификатор кодека : 2000
Продолжительность : 1 ч. 35 м.
Вид битрейта : Постоянный
Битрейт : 192 Кбит/сек
Каналы : 2 канала
Расположение каналов : Front: L R
Частота : 48,0 КГц
Битовая глубина : 16 бит
Метод сжатия : С потерями
Размер потока : 132 Мбайт (9%)
Выравнивание : Разделение по промежуткам
Продолжительность промежутка : 42 мс. (1,00 видеокадр)
Время предзагрузки промежутка : 500 мс.
-

If your ratio falls below 0.3, you will not be able to download Torrents! More about the rating.

[erzsebet.pl].t51779.torrent
Torrent: Registered   [ 2017-12-11 02:36 ]

Download .torrent

Download

15 KB

Status: checked
Completed: 16 times
Size: 1.45 GB
terms.php

#1

11-Dec-2017 01:26

[Profile]  [PM] 
Display posts:    

You cannot post new topics in this forum
You cannot reply to topics in this forum
You cannot edit your posts in this forum
You cannot delete your posts in this forum
You cannot vote in polls in this forum
You cannot attach files in this forum
You can download files in this forum
User agreement
For copyright holders
Advertise on this site

Скачайте на халяву через торрент на трекере erzsebet.pl

!ATTENTION!
The site does not give electronic versions of products, and is engaged only in a collecting and cataloguing of the references sent and published at a forum by our readers. If you are the legal owner of any submitted material and do not wish that the reference to it was in our catalogue, contact us and we shall immediately remove her. Files for an exchange on tracker are given by users of a site, and the administration does not bear the responsibility for their maintenance. The request to not fill in the files protected by copyrights, and also files of the illegal maintenance!