Принц Баяя / Princ Bajaja (Антонин Кахлик / Antonín Kachlík) [1971, Чехословакия, сказка, детский, VHSRip > DVD] [Советская прокатная копия] Dub (Мосфильм)

DL-List and Torrent activity
Size:  3.54 GB   |    Registered:  2 years 10 months   |    Completed:  16 times
Seeders:  3  
 
   
 
 

Max Levien ®

Longevity:
2 years 10 months
Posts:
20374

[Quote] 

Принц Баяя / Princ Bajaja [Советская прокатная копия]- Страна: Чехословакия
Жанр: сказка, детский
Год выпуска: 1971
Продолжительность: 01:17:00-Перевод: Профессиональный (дублированный) - Киностудия "Мосфильм"
Субтитры: нет-Режиссер: Антонин Кахлик / Antonín Kachlík
В ролях: Магда Вашариова, Иван Палух, Карел Аугуста, Густав Опоченский, Франтишек Велецкий, Владимир Главатый, Йозеф Кубичек, Карел Габл, Петр Чепек, Карел Фиала, Йозеф Глиномаз, Иржи Крампол, Илона Жироткова, Петр Скарке, Иржи Птачник, Мирослав Влчек, Милан Йонас, Карел Деллапина, Франтишек Кубичек, Ярмила Орлова, Иван Хрз- | Релиз: -Описание: По одноименной сказке Божены Немцовой.
Добрый, смелый и честный принц, осиротев, отправляется по белому свету счастья искать. Странствуя, принц всегда старался делать людям добро. Как-то он спас волшебного коня от побоев Черного принца, тиранившего всех окружающих. При помощи коня принцу удалось освободить подданных одного доброго старого короля от страшного дракона, собиравшегося взять в жены королевскую дочь Славену. И хотя на руку принцессы претендовали многие, милее всех для Славены оказался немой одноглазый садовник, под видом которого появился во дворце принц Баяя.-Семпл: http://sendfile.su/1275853-Тип релиза: VHSRip
Контейнер: DVD-Video
Видео: 720x576 (4:3) @ 768x576, 25.000 fps, MPEG-2 Video, ~6214 Kbps, 0.599 bits/pixel
Аудио: Русский, 48.0 KHz, AC3, 2 ch, 256 Kbps

DVDInfo

Title: Принц Баяя 1971 Dub Мосфильм
Size: 3.54 Gb ( 3 711 740,00 KBytes ) - DVD-5
Enabled regions: 1, 2, 3, 4, 5, 6
VTS_01 :
Play Length: 01:17:00
Video: PAL 4:3 (720x576) VBR
Audio:
Not specified, AC3, 2/0 (L,R) ch, 256 kbps, Delay -224 mSec

MediaInfo

General
Complete name : \Принц Баяя 1971 Dub Мосфильм\VIDEO_TS\VTS_01_2.VOB
Format : MPEG-PS
File size : 1 024 MiB
Duration : 21 min 41 s
Overall bit rate mode : Variable
Overall bit rate : 6 602 kb/s
Video
ID : 224 (0xE0)
Format : MPEG Video
Format version : Version 2
Format profile : [email protected]
Format settings, BVOP : Yes
Format settings, Matrix : Default
Format settings, GOP : M=3, N=12
Format settings, picture structure : Frame
Duration : 21 min 41 s
Bit rate mode : Variable
Bit rate : 6 214 kb/s
Maximum bit rate : 9 800 kb/s
Width : 720 pixels
Height : 576 pixels
Display aspect ratio : 4:3
Frame rate : 25.000 FPS
Standard : PAL
Color space : YUV
Chroma subsampling : 4:2:0
Bit depth : 8 bits
Scan type : Interlaced
Scan order : Top Field First
Compression mode : Lossy
Bits/(Pixel*Frame) : 0.599
Time code of first frame : 00:22:06:18
Time code source : Group of pictures header
GOP, Open/Closed : Open
Stream size : 964 MiB (94%)
Color primaries : BT.601 PAL
Transfer characteristics : BT.470 System B, BT.470 System G
Matrix coefficients : BT.601
Audio
ID : 189 (0xBD)-128 (0x80)
Format : AC-3
Format/Info : Audio Coding 3
Mode extension : CM (complete main)
Format settings, Endianness : Big
Muxing mode : DVD-Video
Duration : 21 min 41 s
Bit rate mode : Constant
Bit rate : 256 kb/s
Channel(s) : 2 channels
Channel positions : Front: L R
Sampling rate : 48.0 kHz
Frame rate : 31.250 FPS (1536 spf)
Compression mode : Lossy
Delay relative to video : -200 ms
Stream size : 39.7 MiB (4%)
Menu

Описание из "Аннотированного каталога фильмов действующего фонда", 1980г.

If your ratio falls below 0.3, you will not be able to download Torrents! More about the rating.

[erzsebet.pl].t51781.torrent
Torrent: Registered   [ 2017-12-11 02:36 ]

Download .torrent

Download

19 KB

Status: checked
Completed: 16 times
Size: 3.54 GB
terms.php

#1

11-Dec-2017 01:26

[Profile]  [PM] 
Display posts:    

You cannot post new topics in this forum
You cannot reply to topics in this forum
You cannot edit your posts in this forum
You cannot delete your posts in this forum
You cannot vote in polls in this forum
You cannot attach files in this forum
You can download files in this forum
User agreement
For copyright holders
Advertise on this site

Скачайте на халяву через торрент на трекере erzsebet.pl

!ATTENTION!
The site does not give electronic versions of products, and is engaged only in a collecting and cataloguing of the references sent and published at a forum by our readers. If you are the legal owner of any submitted material and do not wish that the reference to it was in our catalogue, contact us and we shall immediately remove her. Files for an exchange on tracker are given by users of a site, and the administration does not bear the responsibility for their maintenance. The request to not fill in the files protected by copyrights, and also files of the illegal maintenance!