Наоборот / Всё наоборот / Vice Versa (Брайан Гилберт / Brian Gilbert) [1988, США, фэнтези, комедия, WEB-DLRip] MVO

DL-List and Torrent activity
Size:  1.46 GB   |    Registered:  2 years 10 months   |    Completed:  16 times
Seeders:  2  
 
   
 
 

Max Levien ®

Longevity:
2 years 10 months
Posts:
20374

[Quote] 

Наоборот / Всё наоборот / Vice Versa- Страна: США
Год выпуска: 1988
Жанр: фэнтези, комедия
Продолжительность: 01:38:33
Перевод: Профессиональный (многоголосый закадровый) Первый канал
Текст читали: Александр Рахленко, Михаил Тихонов, Любовь Германова, Марина Тарасова.
Оригинальная аудиодорожка: нет
Субтитры: нет
Режиссер: Брайан Гилберт / Brian Gilbert
В ролях: Джадж Райнхолд, Фред Сэвэдж, Коринн Борер, Свузи Кёрц, Джейн Качмарек, Дэвид Провэл, Уильям Принц, Глория Гиффорд, Беверли Арчер, Гарри С. Мёрфи...
Описание: Во время поездки на восток в руках Маршала, обыкновенного служащего из универмага, случайно оказывается таинственный череп, украшенный орнаментом.
Под действием его магических сил Маршал и его одиннадцатилетний сын обмениваются телами, и начинается целая череда смешных недоразумений. Ко всему прочему, за волшебным амулетом охотится парочка международных авантюристов…
-Качество: WEB-DLRip [WEB-DL 1080p]
Формат: AVI
Видео кодек: XviD
Аудио кодек: AC3
Видео: 688x384 (1.79:1), 23.976 fps, XviD build 73 ~1914 kbps avg, 0.30 bit/pixel
Аудио: 48 kHz, AC3 Dolby Digital, 2/0 (L,R) ch, ~192 kbps-Раздача от: -

Скриншоты

MI

D:\Мои рипы\Vice.Versa.1988.web-dlrip.dexter_lex.avi
General
Complete name : D:\Мои рипы\Vice.Versa.1988.web-dlrip.dexter_lex.avi
Format : AVI
Format/Info : Audio Video Interleave
File size : 1.46 GiB
Duration : 1h 38mn
Overall bit rate : 2 116 Kbps
Movie name : Vice.Versa.1988.web-dlrip.dexter_lex
Director : dexter lex
Writing application : VirtualDubMod 1.5.10.3 | www.virtualdub-fr.org || (build 2550/release)
Video #0
ID : 0
Format : MPEG-4 Visual
Format profile : Advanced [email protected]
Format settings, BVOP : 1
Format settings, QPel : No
Format settings, GMC : No warppoints
Format settings, Matrix : Custom
Codec ID : XVID
Codec ID/Hint : XviD
Duration : 1h 38mn
Bit rate : 1 915 Kbps
Width : 688 pixels
Height : 384 pixels
Display aspect ratio : 16:9
Frame rate : 23.976 fps
Color space : YUV
Chroma subsampling : 4:2:0
Bit depth : 8 bits
Scan type : Progressive
Compression mode : Lossy
Bits/(Pixel*Frame) : 0.302
Stream size : 1.32 GiB (90%)
Writing library : XviD 73
Audio #1
ID : 1
Format : AC-3
Format/Info : Audio Coding 3
Format profile : Dolby Digital
Mode extension : CM (complete main)
Codec ID : 2000
Duration : 1h 38mn
Bit rate mode : Constant
Bit rate : 192 Kbps
Channel(s) : 2 channels
Channel positions : Front: L R
Sampling rate : 48.0 KHz
Bit depth : 16 bits
Compression mode : Lossy
Stream size : 135 MiB (9%)
Alignment : Split accross interleaves
Interleave, duration : 42 ms (1.00 video frame)
Interleave, preload duration : 500 ms

If your ratio falls below 0.3, you will not be able to download Torrents! More about the rating.

[erzsebet.pl].t51783.torrent
Torrent: Registered   [ 2017-12-11 02:36 ]

Download .torrent

Download

15 KB

Status: checked
Completed: 16 times
Size: 1.46 GB
terms.php

#1

11-Dec-2017 01:26

[Profile]  [PM] 
Display posts:    

You cannot post new topics in this forum
You cannot reply to topics in this forum
You cannot edit your posts in this forum
You cannot delete your posts in this forum
You cannot vote in polls in this forum
You cannot attach files in this forum
You can download files in this forum
User agreement
For copyright holders
Advertise on this site

Скачайте на халяву через торрент на трекере erzsebet.pl

!ATTENTION!
The site does not give electronic versions of products, and is engaged only in a collecting and cataloguing of the references sent and published at a forum by our readers. If you are the legal owner of any submitted material and do not wish that the reference to it was in our catalogue, contact us and we shall immediately remove her. Files for an exchange on tracker are given by users of a site, and the administration does not bear the responsibility for their maintenance. The request to not fill in the files protected by copyrights, and also files of the illegal maintenance!