Звезды и Одиссей / Odysseus a hvězdy (Людвик Ража / Ludvík Ráza) [1976, Чехословакия, фантастика, семейный, TVRip-AVC] VO + Sub Rus + Original Cze

DL-List and Torrent activity
Size:  1.24 GB   |    Registered:  2 years 10 months   |    Completed:  16 times
Seeders:  2  
 
   
 
 

Max Levien ®

Longevity:
2 years 10 months
Posts:
20374

[Quote] 

Звезды и Одиссей / Odysseus a hvězdy
Страна: Чехословакия
Жанр: фантастика, семейный
Год выпуска: 1976
Продолжительность: 01:21:00
Перевод: Одноголосый закадровый
Субтитры: русские
Оригинальная аудиодорожка: чешский
Режиссер: Людвик Ража / Ludvík Ráza
В ролях: Иржина Била, Jana Bousková, Густав Бубник / Gustav Bubník, Richard Knotek, Vladimír Vondra, Jaroslav Cmíra, Милена Дворска, Станислав Фишер
Описание: Как-то, в 2000-м году, отец рассказал сыну о странных событиях, произошедших в его детстве в середине семидесятых. В то время на Земле происходили необъяснимые явления: самолеты теряли свои ориентиры, в небе виделись странные огни и неопознанные объекты, посреди зимы могли зацвести цветы и непонятно что делалось с телевизионным вещанием.
Детям удается найти камень, который, кажется, связан с теми событиями. Разумеется, им никто не верит...
Сэмпл: http://multi-up.com/1048119
Качество видео: TVRip-AVC
Формат видео: MKV
Видео: AVC at 1800 Кбит/сек : 692 x 538 (1.286) at 25.000 fps
Аудио 1: MPEG Audio at 192 Кбит/сек : 2 канала, 48,0 КГц Language : ru
Аудио 2: MPEG Audio at 192 Кбит/сек : 2 канала, 48,0 КГц Language : cs
Формат субтитров: softsub (SRT)
Доп. информация о субтитрах: Русские внешние (dido123)

MediaInfo

Общее
Уникальный идентификатор : 243010348309231897553645610381998768890 (0xB6D2173586530DDDA898E091BEFB42FA)
Полное имя : F:\С моей озвучкой\Звезды и Одиссей\Odyssey a Hvezdy.mkv
Формат : Matroska
Версия формата : Version 4 / Version 2
Размер файла : 1,24 Гбайт
Продолжительность : 1 ч. 21 м.
Общий поток : 2180 Кбит/сек
Дата кодирования : UTC 2015-05-11 19:48:13
Программа кодирования : mkvmerge v6.1.0 ('Old Devil') built on Mar 4 2013 09:10:42
Библиотека кодирования : Lavf52.93.0
Видео
Идентификатор : 1
Формат : AVC
Формат/Информация : Advanced Video Codec
Профиль формата : [email protected]
Параметр CABAC формата : Нет
Параметр ReFrames формата : 1 кадр
Идентификатор кодека : V_MPEG4/ISO/AVC
Продолжительность : 1 ч. 21 м.
Битрейт : 1800 Кбит/сек
Ширина : 692 пикселя
Высота : 538 пикселей
Соотношение сторон : 1,286
Режим частоты кадров : Постоянный
Частота кадров : 25,000 кадров/сек
Цветовое пространство : YUV
Субдискретизация насыщенности : 4:2:0
Битовая глубина : 8 бит
Тип развёртки : Прогрессивная
Бит/(Пиксели*Кадры) : 0.193
Размер потока : 1024 Мбайт (80%)
Библиотека кодирования : x264 core 112
Настройки программы : cabac=0 / ref=1 / deblock=1:0:0 / analyse=0x1:0x111 / me=hex / subme=7 / psy=1 / psy_rd=1.00:0.00 / mixed_ref=0 / me_range=16 / chroma_me=1 / trellis=1 / 8x8dct=0 / cqm=0 / deadzone=21,11 / fast_pskip=1 / chroma_qp_offset=-2 / threads=1 / sliced_threads=0 / nr=0 / decimate=1 / interlaced=0 / constrained_intra=0 / bframes=0 / weightp=0 / keyint=250 / keyint_min=25 / scenecut=40 / intra_refresh=0 / rc_lookahead=40 / rc=abr / mbtree=1 / bitrate=1800 / ratetol=1.0 / qcomp=0.60 / qpmin=10 / qpmax=51 / qpstep=4 / ip_ratio=1.41 / aq=1:1.00
Default : Да
Forced : Нет
Аудио #1
Идентификатор : 2
Формат : MPEG Audio
Версия формата : Version 1
Профиль формата : Layer 3
Режим : Joint stereo
Расширение режима : MS Stereo
Идентификатор кодека : A_MPEG/L3
Идентификатор кодека/Подсказка : MP3
Продолжительность : 1 ч. 21 м.
Вид битрейта : Постоянный
Битрейт : 192 Кбит/сек
Каналы : 2 канала
Частота : 48,0 КГц
Метод сжатия : С потерями
Размер потока : 112 Мбайт (9%)
Библиотека кодирования : LAME3.96
Язык : Russian
Default : Нет
Forced : Нет
Аудио #2
Идентификатор : 3
Формат : MPEG Audio
Версия формата : Version 1
Профиль формата : Layer 3
Режим : Joint stereo
Расширение режима : MS Stereo
Идентификатор кодека : A_MPEG/L3
Идентификатор кодека/Подсказка : MP3
Продолжительность : 1 ч. 21 м.
Вид битрейта : Постоянный
Битрейт : 192 Кбит/сек
Каналы : 2 канала
Частота : 48,0 КГц
Метод сжатия : С потерями
Размер потока : 112 Мбайт (9%)
Библиотека кодирования : LAME3.98
Язык : Czech
Default : Нет
Forced : Нет

Скриншоты

If your ratio falls below 0.3, you will not be able to download Torrents! More about the rating.

[erzsebet.pl].t51784.torrent
Torrent: Registered   [ 2017-12-11 02:36 ]

Download .torrent

Download

13 KB

Status: checked
Completed: 16 times
Size: 1.24 GB
terms.php

#1

11-Dec-2017 01:26

[Profile]  [PM] 
Display posts:    

You cannot post new topics in this forum
You cannot reply to topics in this forum
You cannot edit your posts in this forum
You cannot delete your posts in this forum
You cannot vote in polls in this forum
You cannot attach files in this forum
You can download files in this forum
User agreement
For copyright holders
Advertise on this site

Скачайте на халяву через торрент на трекере erzsebet.pl

!ATTENTION!
The site does not give electronic versions of products, and is engaged only in a collecting and cataloguing of the references sent and published at a forum by our readers. If you are the legal owner of any submitted material and do not wish that the reference to it was in our catalogue, contact us and we shall immediately remove her. Files for an exchange on tracker are given by users of a site, and the administration does not bear the responsibility for their maintenance. The request to not fill in the files protected by copyrights, and also files of the illegal maintenance!