Кровь и песок / Sangre y arena / Blood and sand (Хавьер Элоррьета / Javier Elorrieta) [1989, США, Испания, мелодрама, драма, DVDRip] MVO

DL-List and Torrent activity
Size:  744 MB   |    Registered:  2 years 10 months   |    Completed:  16 times
Seeders:  3  
 
   
 
 

Max Levien ®

Longevity:
2 years 10 months
Posts:
20374

[Quote] 

Кровь и песок / Sangre y arena / Blood and sand
Год выпуска: 1989
Страна: США, Испания
Жанр: мелодрама, драма
Продолжительность: 01:53:27.520 (170188 frames)
Перевод: Профессиональный (многоголосый, закадровый)
Русские субтитры: нет
Режиссер: Хавьер Элоррьета / Javier Elorrieta
В ролях: Кристофер Райделл, Шэрон Стоун, Ана Торрент, Гильермо Монтесинос, Элберт Видал, Симон Андреу.
Описание: Мелодрама о восхождении к славе красавца-матадора и роковой женщине его жизни, Доне Сол. Юный Хуан был одержим одной мечтой — стать знаменитым матадором. Следуя ритуалу, он сбросил одежду и сразился с лучшим быком из стада местной аристократки, сексуальной Доны Сол. За это Хуана жестоко избили слуги Доны, а она не только выходила его, но и соблазнила, обучив всем прелестям любви. Но тем оскорбительнее были ее насмешки и презрение к юноше. И поэтому, полный решимости стать матадором, Хуан покидает родные места. Его девушка Кармен обещает ждать. Хуан овладевает всеми тонкостями искусства и становится лучшим. Но в день признания его мастером корриды Хуан снова встречает обольстительную и коварную Дону Сол, и между ними вновь разгорается страстный, но гибельный для красавца — матадора роман.
Качество: DVDRip
Формат: AVI
Видео кодек: XviD
Аудио кодек: MP3
Видео: 640x464 (1.38:1), 25 fps, XviD MPEG-4 ~779 kbps avg, 0.11 bit/pixel
Аудио: 48 kHz, MPEG Layer 3, 2 ch, ~128.00 kbps avg

Медиаинфо

General
Complete name : D:\фильмы\krov_i_pesok_745_[torrents.ru]_by_bm11.avi
Format : AVI
Format/Info : Audio Video Interleave
File size : 744 MiB
Duration : 1h 53mn
Overall bit rate : 917 Kbps
Writing application : VirtualDubMod 1.5.10.2 (build 2540/release)
Writing library : VirtualDubMod build 2540/release
Video
Format : MPEG-4 Visual
Format profile : Streaming [email protected]
Format settings, BVOP : Yes
Format settings, QPel : No
Format settings, GMC : No warppoints
Format settings, Matrix : Default
Muxing mode : Packed bitstream
Codec ID : XVID
Codec ID/Hint : XviD
Duration : 1h 53mn
Bit rate : 780 Kbps
Width : 640 pixels
Height : 464 pixels
Display aspect ratio : 1.379
Frame rate : 25.000 fps
Resolution : 24 bits
Colorimetry : 4:2:0
Scan type : Progressive
Bits/(Pixel*Frame) : 0.105
Stream size : 633 MiB (85%)
Writing library : XviD 50
Audio
Format : MPEG Audio
Format version : Version 1
Format profile : Layer 3
Codec ID : 55
Codec ID/Hint : MP3
Duration : 1h 53mn
Bit rate mode : Constant
Bit rate : 128 Kbps
Channel(s) : 2 channels
Sampling rate : 48.0 KHz
Resolution : 16 bits
Stream size : 104 MiB (14%)
Alignment : Aligned on interleaves
Interleave, duration : 40 ms (1.00 video frame)
Interleave, preload duration : 504 ms
Релиз группы:
--

If your ratio falls below 0.3, you will not be able to download Torrents! More about the rating.

[erzsebet.pl].t51794.torrent
Torrent: Registered   [ 2017-12-11 02:36 ]

Download .torrent

Download

15 KB

Status: checked
Completed: 16 times
Size: 744 MB
terms.php

#1

11-Dec-2017 01:26

[Profile]  [PM] 
Display posts:    

You cannot post new topics in this forum
You cannot reply to topics in this forum
You cannot edit your posts in this forum
You cannot delete your posts in this forum
You cannot vote in polls in this forum
You cannot attach files in this forum
You can download files in this forum
User agreement
For copyright holders
Advertise on this site

Скачайте на халяву через торрент на трекере erzsebet.pl

!ATTENTION!
The site does not give electronic versions of products, and is engaged only in a collecting and cataloguing of the references sent and published at a forum by our readers. If you are the legal owner of any submitted material and do not wish that the reference to it was in our catalogue, contact us and we shall immediately remove her. Files for an exchange on tracker are given by users of a site, and the administration does not bear the responsibility for their maintenance. The request to not fill in the files protected by copyrights, and also files of the illegal maintenance!