Победитель дракона / Dragonslayer (Мэттью Роббинс / Matthew Robbins) [1981, США, Фэнтези, боевик, приключения, DVDRip] MVO Первый канал

DL-List and Torrent activity
Size:  1.46 GB   |    Registered:  2 years 10 months   |    Completed:  16 times
Seeders:  3  
 
   
 
 

Max Levien ®

Longevity:
2 years 10 months
Posts:
20374

[Quote] 

Победитель дракона / Dragonslayer
Страна: США
Жанр: Фэнтези, боевик, приключения
Год выпуска: 1981
Продолжительность: 01:49:31
Перевод: Профессиональный (многоголосый закадровый) Первый канал
Субтитры: нет
Режиссер: Мэттью Роббинс / Matthew Robbins
В ролях: Питер МакНикол, Кэйтлин Кларк, Ральф Ричардсон, Джон Хэллам, Питер Айр, Альберт Сэлми, Сидни Бромли, Хлоя Сэламен, Эмрис Джеймс, Роджер Кемп
Описание: Безжалостный дракон регулярно пожирает девушек королевства, выбираемых по жребию. Юный белокурый ученик волшебника отважно бросает вызов дракону ради своей возлюбленной и других красавиц, которые могут стать жертвой монстра.
Доп. информация: Релиз
Сэмпл: http://multi-up.com/634293
Качество видео: DVDRip Исходник
Формат видео: AVI
Видео: XviD build 50, 720x304 (2.37:1), 23.976 fps, 1706 kbps avg
Аудио: AC3 Dolby Digital, 48 kHz, 2/0 (L,R) ch, 192 kbps avg

MediaInfo

General
Complete name : D:\Pobeditel.drakona.1981.XviD.DVDRip-Kinozal.TV.avi
Format : AVI
Format/Info : Audio Video Interleave
File size : 1.46 GiB
Duration : 1h 49mn
Overall bit rate : 1 908 Kbps
Writing application : VirtualDubMod 1.5.10.2 (build 2540/release)
Writing library : VirtualDubMod build 2540/release
Video
ID : 0
Format : MPEG-4 Visual
Format profile : [email protected]
Format settings, BVOP : Yes
Format settings, QPel : No
Format settings, GMC : No warppoints
Format settings, Matrix : Default (MPEG)
Codec ID : XVID
Codec ID/Hint : XviD
Duration : 1h 49mn
Bit rate : 1 707 Kbps
Width : 720 pixels
Height : 304 pixels
Display aspect ratio : 2.35
Frame rate : 23.976 fps
Resolution : 24 bits
Colorimetry : 4:2:0
Scan type : Progressive
Bits/(Pixel*Frame) : 0.325
Stream size : 1.31 GiB (89%)
Writing library : XviD 1.2.1 (UTC 2008-12-04)
Audio
ID : 1
Format : AC-3
Format/Info : Audio Coding 3
Codec ID : 2000
Duration : 1h 49mn
Bit rate mode : Constant
Bit rate : 192 Kbps
Channel(s) : 2 channels
Channel positions : L R
Sampling rate : 48.0 KHz
Stream size : 150 MiB (10%)
Alignment : Split accross interleaves
Interleave, duration : 42 ms (1.00 video frame)
Interleave, preload duration : 500 ms

Скриншоты

Сравнения

Сравнения с http://erzsebet.org/forum/viewtopic.php?t=2096293
Сравнительные скриншоты http://www. СПАМ
http://erzsebet.org/forum/viewtopic.php?t=1224482 -- битрейт видео выше допустимого.

If your ratio falls below 0.3, you will not be able to download Torrents! More about the rating.

[erzsebet.pl].t51795.torrent
Torrent: Registered   [ 2017-12-11 02:36 ]

Download .torrent

Download

15 KB

Status: checked
Completed: 16 times
Size: 1.46 GB
terms.php

#1

11-Dec-2017 01:26

[Profile]  [PM] 
Display posts:    

You cannot post new topics in this forum
You cannot reply to topics in this forum
You cannot edit your posts in this forum
You cannot delete your posts in this forum
You cannot vote in polls in this forum
You cannot attach files in this forum
You can download files in this forum
User agreement
For copyright holders
Advertise on this site

Скачайте на халяву через торрент на трекере erzsebet.pl

!ATTENTION!
The site does not give electronic versions of products, and is engaged only in a collecting and cataloguing of the references sent and published at a forum by our readers. If you are the legal owner of any submitted material and do not wish that the reference to it was in our catalogue, contact us and we shall immediately remove her. Files for an exchange on tracker are given by users of a site, and the administration does not bear the responsibility for their maintenance. The request to not fill in the files protected by copyrights, and also files of the illegal maintenance!