Грейстоук: Легенда о Тарзане, повелителе обезьян / Greystoke: The Legend of Tarzan, Lord of the Apes (Хью Хадсон / Hugh Hudson) [1984, США, мелодрама, приключения, BDRip] Dub

DL-List and Torrent activity
Size:  1.46 GB   |    Registered:  2 years 10 months   |    Completed:  16 times
Seeders:  3  
 
   
 
 

Max Levien ®

Longevity:
2 years 10 months
Posts:
20374

[Quote] 

Грейстоук: Легенда о Тарзане, повелителе обезьян / Greystoke: The Legend of Tarzan, Lord of the Apes
Страна: США
Жанр: мелодрама, приключения
Год выпуска: 1984
Продолжительность: 02:17:00
Перевод: Профессиональный (дублированный)
Субтитры: нет
Режиссер: Хью Хадсон / Hugh Hudson
В ролях: Кристофер Ламберт, Энди МакДауэлл, Ральф Ричардсон, Иэн Холм, Джеймс Фокс, Шерил Кэмпбелл, Иэн Чарлсон, Найджел Девенпорт, Николас Фэррел, Пол Джефри...
Описание: Мальчик, выросший среди диких обезьян, возвращается к людям, чтобы заявить свои права на жизнь среди людей. Удивительная сага о Тарзане, созданная писателем Эдгаром Райсом Берроузом, — это волнующий рассказ о столкновении двух миров, дикого и цивилизованного...
Сэмпл: http://sendfile.su/933849
Качество видео: BDRip BDRemux 1080p (R.G. New-Team)
Формат видео: AVI
Видео: 720x304 (2,35:1), 23,976 fps, XviD ~ 1320 kbps avg, 0.252 bit/pixel
Аудио: 48 kHz, Dolby Digital AC3 2.0, 192 kbps

MediaInfo

Общее
Полное имя : Grejstok.Legenda.o.Tarzane.povelitele.obezyan.1984.BDRip._[New-team]_by_AVP_Studio.avi
Формат : AVI
Формат/Информация : Audio Video Interleave
Размер файла : 1,46 Гбайт
Продолжительность : 2 ч. 17 м.
Общий поток : 1522 Кбит/сек
Программа кодирования : VirtualDubModRus 1.5.10.2 (build 2542/release)
Библиотека кодирования : VirtualDubMod build 2542/release
Видео
Идентификатор : 0
Формат : MPEG-4 Visual
Профиль формата : Advanced [email protected]
Параметр BVOP формата : 1
Параметр QPel формата : Нет
Параметр GMC формата : Без точки перехода
Параметр матрицы формата : Выборочная
Идентификатор кодека : XVID
Идентификатор кодека/Подсказка : XviD
Продолжительность : 2 ч. 17 м.
Битрейт : 1320 Кбит/сек
Ширина : 720 пикселей
Высота : 304 пикселя
Соотношение сторон : 2,35:1
Частота кадров : 23,976 кадра/сек
Цветовое пространство : YUV
Субдискретизация насыщенности : 4:2:0
Битовая глубина : 8 бит
Тип развёртки : Прогрессивная
Метод сжатия : С потерями
Бит/(Пиксели*Кадры) : 0.252
Размер потока : 1,26 Гбайт (87%)
Библиотека кодирования : XviD 73
Аудио
Идентификатор : 1
Формат : AC-3
Формат/Информация : Audio Coding 3
Расширение режима : CM (complete main)
Параметр Endianness формата : Big
Идентификатор кодека : 2000
Продолжительность : 2 ч. 16 м.
Вид битрейта : Постоянный
Битрейт : 192 Кбит/сек
Каналы : 2 канала
Расположение каналов : Front: L R
Частота : 48,0 КГц
Битовая глубина : 16 бит
Метод сжатия : С потерями
Размер потока : 188 Мбайт (13%)
Выравнивание : Разделение по промежуткам
Продолжительность промежутка : 42 мс. (1,00 видеокадр)
Время предзагрузки промежутка : 500 мс

Скриншот c названием фильма

Скриншоты

If your ratio falls below 0.3, you will not be able to download Torrents! More about the rating.

[erzsebet.pl].t51806.torrent
Torrent: Registered   [ 2017-12-11 02:36 ]

Download .torrent

Download

15 KB

Status: checked
Completed: 16 times
Size: 1.46 GB
terms.php

#1

11-Dec-2017 01:26

[Profile]  [PM] 
Display posts:    

You cannot post new topics in this forum
You cannot reply to topics in this forum
You cannot edit your posts in this forum
You cannot delete your posts in this forum
You cannot vote in polls in this forum
You cannot attach files in this forum
You can download files in this forum
User agreement
For copyright holders
Advertise on this site

Скачайте на халяву через торрент на трекере erzsebet.pl

!ATTENTION!
The site does not give electronic versions of products, and is engaged only in a collecting and cataloguing of the references sent and published at a forum by our readers. If you are the legal owner of any submitted material and do not wish that the reference to it was in our catalogue, contact us and we shall immediately remove her. Files for an exchange on tracker are given by users of a site, and the administration does not bear the responsibility for their maintenance. The request to not fill in the files protected by copyrights, and also files of the illegal maintenance!