За Родину / Война за независимость / Pentru Patrie / Razboiul Independentei / For Fatherland / Independence War (Серджиу Николэеску / Sergiu Nicolaescu) [1978, Румыния, Исторический, драма, военный, DVDRip] Sub Rus + Original R

DL-List and Torrent activity
Size:  1.19 GB   |    Registered:  2 years 10 months   |    Completed:  16 times
Seeders:  2  
 
   
 
 

Max Levien ®

Longevity:
2 years 10 months
Posts:
20374

[Quote] 

За Родину (Война за независимость) / Pentru Patrie (Războiul Independenţei) / For Fatherland (Independence War)
Страна: Румыния
Жанр: Исторический, драма, военный
Год выпуска: 1978
Продолжительность: 03:11:58
Перевод: Субтитры (blizko26)
Субтитры: русские
Оригинальная аудиодорожка: румынский
Режиссер: Серджиу Николэеску / Sergiu Nicolaescu
В ролях: Серджиу Николэеску, Мирча Албулеску, Мирча Ангелеску, Константин Кодреску, Джордже Константин, Ион Дикисяну, Владимир Гэитан, Эмил Хоссу, Хорациу Мэлэеле, Овидиу Молдован, Джордже Мотой, Валентин Плэтэряну, Амза Пеля, Адина Попеску
Описание: Эпическая кинолента, описывающая Войну за независимость Румынии, как принято называть в румынской историографии участие Объединённых Княжеств в русско-турецкой войне 1877-78 гг. Масштабные батальные сцены, сценарий опирающийся на документы той эпохи и драматические события воссоздающие колорит этой войны - всё это сложено в единую киноленту известным румынским режиссёром.
Сэмпл: http://multi-up.com/936411
Качество видео: DVDRip
Формат видео: AVI
Видео: MPEG-4 Visual, XVID, ширина: 592 пикс., высота: 336 пикс., Частота кадров: 25,000 кадр/сек, 691 Кбит/сек
Аудио: AC-3, 48,0 КГц, 192 Кбит/сек, 2 канала
Формат субтитров: softsub (SRT)
Доп. информация о субтитрах: любительские

Образец субтитров

399
00:32:18,034 --> 00:32:23,800
Считаю что нам следует предоставить им
всю необходимую помощь,
во всякое время и сколько им понадобится
400
00:32:23,801 --> 00:32:30,152
Иначе турки отбросят их за Дунай и
Румыния может стать
театром военных действий
401
00:32:30,153 --> 00:32:32,881
- Если Ваше величество примет решение,
мы может немедленно отдать приказ
402
00:32:32,882 --> 00:32:36,535
чтобы остаток 4-ой дивизии укрепил
румынский гарнизон в Никополе,
403
00:32:36,536 --> 00:32:40,904
а 3-я дивизия перешла Жиу
и заняла позиции 4-ой дивизии
404
00:32:41,705 --> 00:32:45,208
Также необходимо незамедлительно
начать строительство
понтонного моста через Дунай
405
00:32:48,425 --> 00:32:51,104
- Открыть огонь по всей линии Дуная,
особенно у Видина
406
00:32:52,864 --> 00:32:55,008
Господин Брэтияну
и господин полковник Слэничану
407
00:32:55,009 --> 00:32:59,222
отправятся в Ставку русской армии
в Горни Студен
408
00:32:59,223 --> 00:33:03,258
и обсудят условия перехода
румынской армии через Дунай
409
00:33:04,266 --> 00:33:07,665
Хочу чтобы вы решительно отметили
нашим друзьям и союзникам
410
00:33:08,645 --> 00:33:10,527
что румынская армия вступит в бой
411
00:33:10,528 --> 00:33:14,416
но лишь под руководством
ее Главнокомандующего
412
00:33:17,231 --> 00:33:19,215
Господа! Спокойной ночи!
413
00:33:36,069 --> 00:33:38,726
- Я так счастлив что Вы
наконец-то рядом со мною
414
00:33:40,220 --> 00:33:42,141
Полагаю что все трудности
были устранены.
415
00:33:43,097 --> 00:33:45,357
- Государь! Я бы прибыл сразу
же по получении телеграммы
416
00:33:45,358 --> 00:33:47,640
Но я должен был лично подготовить
форсирование Дуная
417
00:33:47,641 --> 00:33:49,139
- Очень хорошо.
418
00:33:50,140 --> 00:33:54,907
Вот наконец-то свершилось
это сотрудничество,
которое мы все так горячо желали

MediaInfo

Формат : AVI
Формат/Информация : Audio Video Interleave
Размер файла : 1.19 GiB
Продолжительность : 3h 11mn
Общий поток : 890 Kbps
Программа-кодировщик : VirtualDubMod 1.5.4.1 (build 2178/release)
Библиотека кодирования : VirtualDubMod build 2178/release
Video
Идентификатор : 0
Формат : MPEG-4 Visual
Параметры BVOP формата : No
Параметры QPel формата : No
Параметры GMC формата : No warppoints
Параметры матрицы формата : Default (H.263)
Идентификатор кодека : XVID
Идентификатор кодека/Подсказка : XviD
Продолжительность : 3h 11mn
Битрейт : 691 Kbps
Ширина : 592 pixels
Высота : 336 pixels
Соотношение кадра : 16/9
Частота кадров : 25.000 fps
Разрешение : 24 bits
Колориметрия : 4:2:0
Тип развёртки : Progressive
Бит/(Пиксели*Кадры) : 0.139
Размер потока : 948 MiB (78%)
Библиотека кодирования : XviD 1.2.1 (UTC 2008-12-04)
Audio
Идентификатор : 1
Формат : AC-3
Формат/Информация : Audio Coding 3
Идентификатор кодека : 2000
Продолжительность : 3h 11mn
Вид битрейта : Constant
Битрейт : 192 Kbps
Канал(ы) : 2 channels
Расположение каналов : L R
Частота : 48.0 KHz
Размер потока : 264 MiB (22%)
Выравнивание : Split accross interleaves
Продолжительность промежутка : 80 ms (2.00 video frames)
Время предзагрузки промежутка : 500 ms
Язык : Romanian

Скриншот c названием фильма

Скриншоты

If your ratio falls below 0.3, you will not be able to download Torrents! More about the rating.

[erzsebet.pl].t51807.torrent
Torrent: Registered   [ 2017-12-11 02:36 ]

Download .torrent

Download

13 KB

Status: checked
Completed: 16 times
Size: 1.19 GB
terms.php

#1

11-Dec-2017 01:26

[Profile]  [PM] 
Display posts:    

You cannot post new topics in this forum
You cannot reply to topics in this forum
You cannot edit your posts in this forum
You cannot delete your posts in this forum
You cannot vote in polls in this forum
You cannot attach files in this forum
You can download files in this forum
User agreement
For copyright holders
Advertise on this site

Скачайте на халяву через торрент на трекере erzsebet.pl

!ATTENTION!
The site does not give electronic versions of products, and is engaged only in a collecting and cataloguing of the references sent and published at a forum by our readers. If you are the legal owner of any submitted material and do not wish that the reference to it was in our catalogue, contact us and we shall immediately remove her. Files for an exchange on tracker are given by users of a site, and the administration does not bear the responsibility for their maintenance. The request to not fill in the files protected by copyrights, and also files of the illegal maintenance!