Борис I. Последний язычник / Борис I. Последният езичник / Boris I (Борислав Шаралиев / Borislav Sharaliev) [1984, Болгария, исторический, DVDRip] [Полная версия] DVO

DL-List and Torrent activity
Size:  2.88 GB   |    Registered:  2 years 10 months   |    Completed:  16 times
Seeders:  2  
 
   
 
 

Max Levien ®

Longevity:
2 years 10 months
Posts:
20374

[Quote] 

Борис I. Последний язычник / Борис I. Последният езичник / Boris I [Полная версия]
Страна: Болгария
Жанр: Исторический
Год выпуска: 1984
Продолжительность: 02:03:20 + 02:01:14
Перевод: Профессиональный (двухголосый закадровый) - СВ-Дубль
Субтитры: нет
Оригинальная аудиодорожка: нет
Режиссер: Борислав Шаралиев / Borislav Sharaliev
В ролях: Стефан Данаилов, Антоний Генов, Коста Цонев, Борис Луканов, Венцислав Кисёв, Анета Петровска, Пламен Дончев, Янина Кашева, Петар Петров, Иван Иванов, Стоян Стоев, Николай Киссуров, Димитр Дмитров, Марио Крастев, Борислав Костов, Александр Александров, Кирил Стаменов, Никола Дачев, Михаил Гетсов, Сильви Ангелов, Петко Беров, Методий Атанасов, Энчо Энчев, Любомир Димов, Петко Тодоров, Владимир Манолов, Стефан Пеев
Описание: Лето 6371 года от сотворения мира, а от Христа 863 год. Хан болгаров был Борис. И с большой силой налетели враги, и воевал Борис 10 лет...
1-я серия - "Крещение".
864 год от Рождества Христова. Болгарский хан Борис решает установить долговечный мир с соседями и положить конец разделению между болгарами и славянами. Он принимает Христианскую Веру и становится князем Борисом. 865 год. Греческие священники приходят в Болгарию крестить народ. Встает вопрос о богослужебном языке и подчинении Церкви. Не желая принимать новую веру, языческая знать поднимает мятеж.
2-я серия - "Слово о письменах".
Минуло два десятилетия, как болгары приняли Христианство. Но греческий богослужебный язык так и остался для народа чужим и непонятым. Простые и ясные слова, что укрепят сердца и умы, приносят в дар ученики Кирилла и Мефодия. Монах Борис видит, что семена просвещения легли на благодатную почву. Но князь Владимир-Расате собирается разрушить храмы, вернуть старую веру и вновь разделить народ на два племени. Борис не может смотреть, как сын втягивает Болгарию в пропасть...
Доп. информация: Рипы сделаны с этих исходников: http://erzsebet.org/forum/viewtopic.php?t=5067254
Это полный вариант фильма. Сокращенный вариант раздаётся здесь: http://erzsebet.org/forum/viewtopic.php?t=4197837
Сэмпл: https://www.sendspace.com/file/gmcqyf
Качество видео: DVDRip
Формат видео: AVI
Видео: 720*288 (2,500), в 25,000 кадров/сек, XviD
Аудио: Русский, 128 Кбит/сек, 48,0 КГц, 2 канала, MP3

Битрейты видео, отчёты и скриншоты

Фильм 1. Крещение (1493 Кбит/сек)

MediaInfo

Общее
Полное имя : N:\MONAR.RU\Художественные фильмы\Зарубежное кино\Борис I. Последний язычник (1984) DVDRip\Фильм 1. Крещение.avi
Формат : AVI
Формат/Информация : Audio Video Interleave
Размер файла : 1,40 Гбайт
Продолжительность : 2 ч. 3 м.
Общий поток : 1631 Кбит/сек
Видео
Идентификатор : 0
Формат : MPEG-4 Visual
Профиль формата : Advanced [email protected]
Параметр BVOP формата : 2
Параметр QPel формата : Нет
Параметр GMC формата : Без точки перехода
Параметр матрицы формата : Выборочная
Идентификатор кодека : XVID
Идентификатор кодека/Подсказка : XviD
Продолжительность : 2 ч. 3 м.
Битрейт : 1493 Кбит/сек
Ширина : 720 пикселей
Высота : 288 пикселей
Соотношение сторон : 2,500
Частота кадров : 25,000 кадров/сек
Цветовое пространство : YUV
Субдискретизация насыщенности : 4:2:0
Битовая глубина : 8 бит
Тип развёртки : Прогрессивная
Метод сжатия : С потерями
Бит/(Пиксели*Кадры) : 0.288
Размер потока : 1,29 Гбайт (92%)
Библиотека кодирования : XviD 1.2.1 (UTC 2008-12-04)
Аудио
Идентификатор : 1
Формат : MPEG Audio
Версия формата : Version 1
Профиль формата : Layer 3
Идентификатор кодека : 55
Идентификатор кодека/Подсказка : MP3
Продолжительность : 2 ч. 3 м.
Продолжительность оригинала : 2 ч. 3 м.
Вид битрейта : Постоянный
Битрейт : 128 Кбит/сек
Каналы : 2 канала
Частота : 48,0 КГц
Метод сжатия : С потерями
Размер потока : 113 Мбайт (8%)
Выравнивание : Соединение по промежуткам
Продолжительность промежутка : 40 мс. (1,00 видеокадр)

Скриншот c названием фильма

Скриншоты

Фильм 2. Слово о письменах (1602 Кбит/сек)

MediaInfo

Общее
Полное имя : N:\MONAR.RU\Художественные фильмы\Зарубежное кино\Борис I. Последний язычник (1984) DVDRip\Фильм 2. Слово о письменах.avi
Формат : AVI
Формат/Информация : Audio Video Interleave
Размер файла : 1,48 Гбайт
Продолжительность : 2 ч. 1 м.
Общий поток : 1743 Кбит/сек
Видео
Идентификатор : 0
Формат : MPEG-4 Visual
Профиль формата : Advanced [email protected]
Параметр BVOP формата : 2
Параметр QPel формата : Нет
Параметр GMC формата : Без точки перехода
Параметр матрицы формата : Выборочная
Идентификатор кодека : XVID
Идентификатор кодека/Подсказка : XviD
Продолжительность : 2 ч. 1 м.
Битрейт : 1602 Кбит/сек
Ширина : 720 пикселей
Высота : 288 пикселей
Соотношение сторон : 2,500
Частота кадров : 25,000 кадров/сек
Цветовое пространство : YUV
Субдискретизация насыщенности : 4:2:0
Битовая глубина : 8 бит
Тип развёртки : Прогрессивная
Метод сжатия : С потерями
Бит/(Пиксели*Кадры) : 0.309
Размер потока : 1,36 Гбайт (92%)
Библиотека кодирования : XviD 1.2.1 (UTC 2008-12-04)
Аудио
Идентификатор : 1
Формат : MPEG Audio
Версия формата : Version 1
Профиль формата : Layer 3
Идентификатор кодека : 55
Идентификатор кодека/Подсказка : MP3
Продолжительность : 2 ч. 1 м.
Продолжительность оригинала : 2 ч. 1 м.
Вид битрейта : Постоянный
Битрейт : 128 Кбит/сек
Каналы : 2 канала
Частота : 48,0 КГц
Метод сжатия : С потерями
Размер потока : 111 Мбайт (7%)
Выравнивание : Разделение по промежуткам
Продолжительность промежутка : 24 мс. (0,60 видеокадр)

Скриншот c названием фильма

Скриншоты

If your ratio falls below 0.3, you will not be able to download Torrents! More about the rating.

[erzsebet.pl].t51821.torrent
Torrent: Registered   [ 2017-12-11 02:36 ]

Download .torrent

Download

30 KB

Status: checked
Completed: 16 times
Size: 2.88 GB
terms.php

#1

11-Dec-2017 01:25

[Profile]  [PM] 
Display posts:    

You cannot post new topics in this forum
You cannot reply to topics in this forum
You cannot edit your posts in this forum
You cannot delete your posts in this forum
You cannot vote in polls in this forum
You cannot attach files in this forum
You can download files in this forum
User agreement
For copyright holders
Advertise on this site

Скачайте на халяву через торрент на трекере erzsebet.pl

!ATTENTION!
The site does not give electronic versions of products, and is engaged only in a collecting and cataloguing of the references sent and published at a forum by our readers. If you are the legal owner of any submitted material and do not wish that the reference to it was in our catalogue, contact us and we shall immediately remove her. Files for an exchange on tracker are given by users of a site, and the administration does not bear the responsibility for their maintenance. The request to not fill in the files protected by copyrights, and also files of the illegal maintenance!