Эвтаназия любви / Eutanasia di un amore (Энрико Мария Салерно / Enrico Maria Salerno) [1978, Италия, драма, мелодрама, DVDRip] VO

DL-List and Torrent activity
Size:  745 MB   |    Registered:  2 years 10 months   |    Completed:  16 times
Seeders:  2  
 
   
 
 

Max Levien ®

Longevity:
2 years 10 months
Posts:
20374

[Quote] 

Эвтаназия любви / Eutanasia di un amore
Год выпуска: 1978
Страна: Италия
Жанр: драма, мелодрама
Продолжительность: 01:33:43.560 (140589 frames)
Перевод: Одноголосый, закадровый - Urasiko
Русские субтитры: нет
Режиссер: Энрико Мария Салерно / Enrico Maria Salerno
В ролях: Тони Мусанте / Tony Musante, Орнелла Мути / Ornella Muti, Моника Гуэрриторе / Monica Guerritore, Лаура Троттер / Laura Trotter, Карина Верлье / Karina Verlier, Марио Скачча / Mario Scaccia
Описание: Паоло (Тони Мусанте) преподает в университете, Сена (Орнела Мути) его ассистентка - любовница. Внезапно она решает прервать их отношения, что становится шоком для Паоло, и он отчаянно пытается выяснить причину "эвтаназии любви"....
Качество: DVDRip
Формат: AVI
Видео кодек: XviD
Аудио кодек: МР3
Видео: 672x384 (1.75:1), 25 fps, XviD build 50 ~973 kbps avg, 0.15 bit/pixel
Аудио: 48 kHz, MPEG Layer 3, 2 ch, ~128.00 kbps avg

Медиаинфо

General
Complete name : E:\001 МОИ РАЗДАЧИ\Эвтаназия любви 745\evtanaziya_lubvi_745_[torrents.ru]_by_bm11.avi
Format : AVI
Format/Info : Audio Video Interleave
File size : 745 MiB
Duration : 1h 33mn
Overall bit rate : 1 111 Kbps
Writing application : VirtualDubMod 1.5.10.2 (build 2540/release)
Writing library : VirtualDubMod build 2540/release
Video
Format : MPEG-4 Visual
Format profile : Streaming [email protected]
Format settings, BVOP : Yes
Format settings, QPel : No
Format settings, GMC : No warppoints
Format settings, Matrix : Custom
Codec ID : XVID
Codec ID/Hint : XviD
Duration : 1h 33mn
Bit rate : 974 Kbps
Width : 672 pixels
Height : 384 pixels
Display aspect ratio : 16/9
Frame rate : 25.000 fps
Resolution : 24 bits
Colorimetry : 4:2:0
Scan type : Progressive
Bits/(Pixel*Frame) : 0.151
Stream size : 653 MiB (88%)
Writing library : XviD 50
Audio
Format : MPEG Audio
Format version : Version 1
Format profile : Layer 3
Codec ID : 55
Codec ID/Hint : MP3
Duration : 1h 33mn
Bit rate mode : Constant
Bit rate : 128 Kbps
Channel(s) : 2 channels
Sampling rate : 48.0 KHz
Resolution : 16 bits
Stream size : 85.8 MiB (12%)
Alignment : Aligned on interleaves
Interleave, duration : 40 ms (1.00 video frame)
Interleave, preload duration : 504 ms
Релиз группы:
--

If your ratio falls below 0.3, you will not be able to download Torrents! More about the rating.

[erzsebet.pl].t51822.torrent
Torrent: Registered   [ 2017-12-11 02:36 ]

Download .torrent

Download

15 KB

Status: checked
Completed: 16 times
Size: 745 MB
terms.php

#1

11-Dec-2017 01:25

[Profile]  [PM] 
Display posts:    

You cannot post new topics in this forum
You cannot reply to topics in this forum
You cannot edit your posts in this forum
You cannot delete your posts in this forum
You cannot vote in polls in this forum
You cannot attach files in this forum
You can download files in this forum
User agreement
For copyright holders
Advertise on this site

Скачайте на халяву через торрент на трекере erzsebet.pl

!ATTENTION!
The site does not give electronic versions of products, and is engaged only in a collecting and cataloguing of the references sent and published at a forum by our readers. If you are the legal owner of any submitted material and do not wish that the reference to it was in our catalogue, contact us and we shall immediately remove her. Files for an exchange on tracker are given by users of a site, and the administration does not bear the responsibility for their maintenance. The request to not fill in the files protected by copyrights, and also files of the illegal maintenance!