Бойцовая рыбка / Rumble Fish (Френсис Форд Коппола / Francis Ford Coppola) [1983, США, драма, HDRip] MVO + 3 x VO + Sub (Rus; Eng) + Original Eng

DL-List and Torrent activity
Size:  1.88 GB   |    Registered:  2 years 10 months   |    Completed:  16 times
Seeders:  3  
 
   
 
 

Max Levien ®

Longevity:
2 years 10 months
Posts:
20374

[Quote] 

Бойцовая рыбка / Rumble Fish- Страна: СЩА
Жанр: драма
Год выпуска: 1983
Продолжительность: 01:36:07--Перевод 1: Профессиональный (многоголосый закадровый)
Перевод 2: Одноголосый закадровый
Перевод 3: Одноголосый закадровый - Багичев (отдельно) спасибо greaser
Перевод 4: Одноголосый закадровый - Неизвестный (отдельно) спасибо SickMind
Субтитры: русские, английские
Оригинальная аудиодорожка: английский (отдельно)--Режиссер: Френсис Форд Коппола / Francis Ford Coppola--В ролях: Мэтт Диллон, Микки Рурк, Дайан Лэйн, Деннис Хоппер, Дайана Скаруид, Винсент Спано, Николас Кейдж, Крис Пенн, Лоренс Фишбёрн, Уильям Смит ...
Описание: Экранизация новеллы американской писательницы С. Э. Хинтон. История, повествующая о двух братьях, которых давным-давно бросила мать, и они живут с отцом-алкоголиком в провинциальном тихом городке. Старший брат по прозвищу Мотоциклист, завоевавший славу уличного Короля среди молодежи родного города, уезжает из дома на своем мотоцикле в поисках лучшей жизни. Младший, Расти Джеймс, стремится повторить путь брата в преступной среде городка и с нетерпением ждет его возвращения. И однажды Мотоциклист возвращается, но уже совсем другим.--Доп. информация: КиноПоиск: 7.860 (5900) | IMDb: 7.20 (19 114) | Сэмпл--Качество видео: HDRip [Источник]
Формат видео: AVI
Видео: 704x384 (1.83:1), 23.976 fps, XviD build 73 ~1774 kbps avg, 0.27 bit/pixel--Аудио 1: 48 kHz, AC3 Dolby Digital, 2/0 (L,R) ch, ~192 kbps MVO
Аудио 2: 48 kHz, AC3 Dolby Digital, 2/0 (L,R) ch, ~192 kbps VO
Аудио 3: 44.100 kHz, MPEG Layer 3, 2 ch, ~128.00 kbps avg VO (Багичев) - отдельно
Аудио 4: 44.100 kHz, MPEG Layer 3, 2 ch, ~128.00 kbps avg VO (Неизвестный) - отдельно
Аудио 5: 48 kHz, AC3 Dolby Digital, 3/2 (L,C,R,l,r) + LFE ch, ~384 kbps ENG - отдельно
Формат субтитров: softsub (SRT)

Знаете ли вы, что...

Тому Крузу предлагали роль Расти Джеймса, но он отказался в пользу фильма «Рискованный бизнес» (1983).
Автор книги С. Э. Хинтон сыграла в фильме эпизодическую роль проститутки.
Панк-рок группа Green Day выпустила песню «Rusty James», посвящённую главному герою фильма.

MediaInfo

Format : AVI
Format/Info : Audio Video Interleave
File size : 1.45 GiB
Duration : 1h 36mn
Overall bit rate : 2 166 Kbps
Movie name : Бойцовая рыбка
Director : derdevil13
Writing application : VirtualDubMod 1.5.10.3 | www.virtualdub-fr.org || (build 2550/release)
Video
ID : 0
Format : MPEG-4 Visual
Format profile : Advanced [email protected]
Format settings, BVOP : 2
Format settings, QPel : No
Format settings, GMC : No warppoints
Format settings, Matrix : Custom
Codec ID : XVID
Codec ID/Hint : XviD
Duration : 1h 36mn
Bit rate : 1 775 Kbps
Width : 704 pixels
Height : 384 pixels
Display aspect ratio : 1.85:1
Frame rate : 23.976 fps
Color space : YUV
Chroma subsampling : 4:2:0
Bit depth : 8 bits
Scan type : Progressive
Compression mode : Lossy
Bits/(Pixel*Frame) : 0.274
Stream size : 1.19 GiB (82%)
Writing library : XviD 73
Audio #1
ID : 1
Format : AC-3
Format/Info : Audio Coding 3
Mode extension : CM (complete main)
Format settings, Endianness : Big
Codec ID : 2000
Duration : 1h 34mn
Bit rate mode : Constant
Bit rate : 192 Kbps
Channel(s) : 2 channels
Channel positions : Front: L R
Sampling rate : 48.0 KHz
Bit depth : 16 bits
Compression mode : Lossy
Stream size : 130 MiB (9%)
Alignment : Split accross interleaves
Interleave, duration : 42 ms (1.02 video frame)
Interleave, preload duration : 500 ms
Audio #2
ID : 2
Format : AC-3
Format/Info : Audio Coding 3
Mode extension : CM (complete main)
Format settings, Endianness : Big
Codec ID : 2000
Duration : 1h 34mn
Bit rate mode : Constant
Bit rate : 192 Kbps
Channel(s) : 2 channels
Channel positions : Front: L R
Sampling rate : 48.0 KHz
Bit depth : 16 bits
Compression mode : Lossy
Stream size : 130 MiB (9%)
Alignment : Split accross interleaves
Interleave, duration : 42 ms (1.02 video frame)
Interleave, preload duration : 500 ms

Скриншоты

Удаление / добавление звуковой(ых) дорожки(ек) и / или субтитров в контейнер AVI

Программы для работы с контейнерами --- VirtualDub (AVI)
http://erzsebet.org/forum/viewtopic.php?t=2660545

Как подключить альтернативную (внешнюю) звуковую дорожку к видео?

http://erzsebet.org/forum/viewtopic.php?t=2403326
Пожалуйста, оставайтесь на раздаче как можно дольше-

If your ratio falls below 0.3, you will not be able to download Torrents! More about the rating.

[erzsebet.pl].t51823.torrent
Torrent: Registered   [ 2017-12-11 02:36 ]

Download .torrent

Download

20 KB

Status: checked
Completed: 16 times
Size: 1.88 GB
terms.php

#1

11-Dec-2017 01:25

[Profile]  [PM] 
Display posts:    

You cannot post new topics in this forum
You cannot reply to topics in this forum
You cannot edit your posts in this forum
You cannot delete your posts in this forum
You cannot vote in polls in this forum
You cannot attach files in this forum
You can download files in this forum
User agreement
For copyright holders
Advertise on this site

Скачайте на халяву через торрент на трекере erzsebet.pl

!ATTENTION!
The site does not give electronic versions of products, and is engaged only in a collecting and cataloguing of the references sent and published at a forum by our readers. If you are the legal owner of any submitted material and do not wish that the reference to it was in our catalogue, contact us and we shall immediately remove her. Files for an exchange on tracker are given by users of a site, and the administration does not bear the responsibility for their maintenance. The request to not fill in the files protected by copyrights, and also files of the illegal maintenance!