Красный скорпион / Red Scorpion (Джозеф Зито / Joseph Zito) [1988, ЮАР, США, боевик, приключения, BDRip-AVC] DVO + AVO + Original + Sub (rus, eng)

DL-List and Torrent activity
Size:  2.89 GB   |    Registered:  2 years 10 months   |    Completed:  16 times
Seeders:  4  
 
   
 
 

Max Levien ®

Longevity:
2 years 10 months
Posts:
20374

[Quote] 

Красный скорпион / Red Scorpion
Год выхода: 1988
Страна: ЮАР, США, Намибия
Жанр: боевик, приключения
Продолжительность: 01:45:12
Перевод: Профессиональный (двухголосый, закадровый) студия "Инис" + Авторский (одноголосый, закадровый) А. Гаврилов
Субтитры: русские, английские
Навигация по главам: есть

Режиссер: Джозеф Зито / Joseph Zito
В ролях: Дольф Лундгрен, М. Эммет Уолш, Аль Уайт, Т.П. МакКенна, Кармен Ардженциано, Алекс Колон, Брайон Джеймс
Описание: Николай Раченко — гордость элитного отряда спецназа, идеальная машина смерти на службе у высшего руководства СССР. В обстановке абсолютной секретности бесстрашный боец получает рискованное задание: устранить в далекой африканской стране лидера повстанцев, бросившего вызов коммунистам.
Николай не привык обсуждать приказы, в диких пустошах, среди первобытных племен и кровожадных наемников есть где развернуться его широкой душе и пудовым кулакам, но постепенно он понимает, что является слепым орудием сил зла.
Встав жертвой предательства и двойной игры, Николай переходит на сторону своих противников, верша правосудие по своему усмотрению, и вскоре его бывшие командиры понимают, что у них появился смертельно опасный враг.
Качество: BDRip-AVC (Source: BD-Remux 1080p)
Формат: MKV
Видео кодек: H.264
Аудио кодек: AC3
Видео: 928x522 (1.77:1), 23.976 fps, ~3106 kbps, 0.267 bit/pixel
Аудио (RUS): 48 kHz, AC3, 5.1 ch, ~448 kbps | DVO "Инис"
Аудио (RUS): 48 kHz, AC3, 2.0 ch, ~192 kbps | AVO Гаврилов
Аудио (ENG): 48 kHz, AC3, 2.0 ch, ~192 kbps | Original
Sample: narod | MediaFire | Multi-UP-

MI

Общее
Полное имя : E:\Red.Scorpion.1988.BDRip-AVC.x264.mkv
Формат : Matroska
Версия формата : Version 2
Размер файла : 2,89 Гбайт
Продолжительность : 1 ч. 45 м.
Общий поток : 3937 Кбит/сек
Дата кодирования : UTC 2012-07-09 09:42:42
Программа кодирования : mkvmerge v5.6.0 ('Kenya Kane') built on May 27 2012 16:44:04
Библиотека кодирования : libebml v1.2.3 + libmatroska v1.3.0
Видео
Идентификатор : 1
Формат : AVC
Формат/Информация : Advanced Video Codec
Профиль формата : [email protected]
Параметр CABAC формата : Да
Параметр ReFrames формата : 16 кадров
Идентификатор кодека : V_MPEG4/ISO/AVC
Продолжительность : 1 ч. 45 м.
Битрейт : 3106 Кбит/сек
Ширина : 928 пикселей
Высота : 522 пикселя
Соотношение сторон : 16:9
Частота кадров : 23,976 кадра/сек
Цветовое пространство : YUV
Субдискретизация насыщенности : 4:2:0
Битовая глубина : 8 бит
Тип развёртки : Прогрессивная
Бит/(Пиксели*Кадры) : 0.267
Размер потока : 2,22 Гбайт (77%)
Заголовок : 928x522 (1.77:1), 23.976 fps, 3106 kbps, 0.267 bit/pixel
Библиотека кодирования : x264 core 123 r2184+681M 5d72658
Настройки программы : cabac=1 / ref=16 / deblock=1:-2:-1 / analyse=0x3:0x133 / me=umh / subme=10 / psy=1 / fade_compensate=0.00 / psy_rd=1.12:0.03 / mixed_ref=1 / me_range=32 / chroma_me=1 / trellis=2 / 8x8dct=1 / cqm=0 / deadzone=21,11 / fast_pskip=0 / chroma_qp_offset=-3 / threads=6 / sliced_threads=0 / nr=0 / decimate=0 / interlaced=0 / bluray_compat=0 / constrained_intra=0 / fgo=0 / bframes=16 / b_pyramid=2 / b_adapt=2 / b_bias=0 / direct=3 / weightb=1 / open_gop=0 / weightp=2 / keyint=240 / keyint_min=23 / scenecut=40 / intra_refresh=0 / rc=2pass / mbtree=0 / bitrate=3106 / ratetol=1.0 / qcomp=0.75 / qpmin=0 / qpmax=69 / qpstep=4 / cplxblur=20.0 / qblur=0.5 / ip_ratio=1.30 / pb_ratio=1.20 / aq=2:1.00
Язык : English
Default : Да
Forced : Нет
Коэффициенты матрицы : BT.709-5, BT.1361, IEC 61966-2-4 709, SMPTE RP177
Аудио #1
Идентификатор : 2
Формат : AC-3
Формат/Информация : Audio Coding 3
Расширение режима : CM (complete main)
Параметр Endianness формата : Big
Идентификатор кодека : A_AC3
Продолжительность : 1 ч. 45 м.
Вид битрейта : Постоянный
Битрейт : 448 Кбит/сек
Каналы : 6 каналов
Расположение каналов : Front: L C R, Side: L R, LFE
Частота : 48,0 КГц
Битовая глубина : 16 бит
Метод сжатия : С потерями
Размер потока : 337 Мбайт (11%)
Заголовок : 48 kHz, AC3, 5.1 ch, 448 kbps - DVO (Студия "Инис")
Язык : Russian
Default : Да
Forced : Нет
Аудио #2
Идентификатор : 3
Формат : AC-3
Формат/Информация : Audio Coding 3
Расширение режима : CM (complete main)
Параметр Endianness формата : Big
Идентификатор кодека : A_AC3
Продолжительность : 1 ч. 45 м.
Вид битрейта : Постоянный
Битрейт : 192 Кбит/сек
Каналы : 2 канала
Расположение каналов : Front: L R
Частота : 48,0 КГц
Битовая глубина : 16 бит
Метод сжатия : С потерями
Размер потока : 144 Мбайт (5%)
Заголовок : 48 kHz, AC3, 2.0 ch, 192 kbps - AVO (А. Гаврилов)
Язык : Russian
Default : Нет
Forced : Нет
Аудио #3
Идентификатор : 4
Формат : AC-3
Формат/Информация : Audio Coding 3
Расширение режима : CM (complete main)
Параметр Endianness формата : Big
Идентификатор кодека : A_AC3
Продолжительность : 1 ч. 45 м.
Вид битрейта : Постоянный
Битрейт : 192 Кбит/сек
Каналы : 2 канала
Расположение каналов : Front: L R
Частота : 48,0 КГц
Битовая глубина : 16 бит
Метод сжатия : С потерями
Размер потока : 144 Мбайт (5%)
Заголовок : 48 kHz, AC3, 2.0 ch, 192 kbps - Original
Язык : English
Default : Нет
Forced : Нет
Текст #1
Идентификатор : 5
Формат : UTF-8
Идентификатор кодека : S_TEXT/UTF8
Идентификатор кодека/Информация : UTF-8 Plain Text
Заголовок : Русские
Язык : Russian
Default : Нет
Forced : Нет
Текст #2
Идентификатор : 6
Формат : UTF-8
Идентификатор кодека : S_TEXT/UTF8
Идентификатор кодека/Информация : UTF-8 Plain Text
Заголовок : Английские
Язык : English
Default : Нет
Forced : Нет
Меню
00:00:00.000 : en:Chapter 1
00:11:34.819 : en:Chapter 2
00:20:42.407 : en:Chapter 3
00:28:39.676 : en:Chapter 4
00:37:01.385 : en:Chapter 5
00:44:59.321 : en:Chapter 6
00:56:19.334 : en:Chapter 7
01:05:42.938 : en:Chapter 8
01:13:53.512 : en:Chapter 9
01:23:50.567 : en:Chapter 10
01:34:45.346 : en:Chapter 11
01:42:41.405 : en:Chapter 12

x264 log

x264 [info]: frame I:1074 Avg QP:19.92 size: 68736 PSNR Mean Y:43.57 U:47.39 V:49.60 Avg:44.64 Global:44.02
x264 [info]: frame P:27332 Avg QP:22.31 size: 28085 PSNR Mean Y:41.69 U:45.96 V:48.39 Avg:42.82 Global:42.22
x264 [info]: frame B:122938 Avg QP:23.21 size: 13073 PSNR Mean Y:40.94 U:45.55 V:48.43 Avg:42.12 Global:41.44
x264 [info]: consecutive B-frames: 1.3% 1.3% 3.8% 14.8% 13.4% 31.7% 10.2% 7.2% 5.3% 4.7% 2.1% 1.3% 1.0% 1.0% 0.3% 0.3% 0.4%
x264 [info]: mb I I16..4: 3.0% 87.2% 9.7%
x264 [info]: mb P I16..4: 0.6% 12.1% 1.2% P16..4: 40.1% 25.8% 17.1% 0.8% 0.2% skip: 2.0%
x264 [info]: mb B I16..4: 0.0% 1.1% 0.1% B16..8: 45.8% 15.7% 5.1% direct:10.1% skip:22.2% L0:46.0% L1:46.6% BI: 7.5%
x264 [info]: 8x8 transform intra:87.5% inter:63.0%
x264 [info]: direct mvs spatial:97.6% temporal:2.4%
x264 [info]: coded y,uvDC,uvAC intra: 96.3% 83.7% 57.7% inter: 45.4% 36.4% 12.8%
x264 [info]: i16 v,h,dc,p: 40% 15% 9% 36%
x264 [info]: i8 v,h,dc,ddl,ddr,vr,hd,vl,hu: 6% 6% 5% 12% 16% 15% 15% 12% 13%
x264 [info]: i4 v,h,dc,ddl,ddr,vr,hd,vl,hu: 8% 5% 2% 10% 17% 16% 16% 13% 13%
x264 [info]: i8c dc,h,v,p: 46% 21% 16% 17%
x264 [info]: Weighted P-Frames: Y:16.7% UV:8.7%
x264 [info]: ref P L0: 38.7% 12.2% 17.5% 7.0% 5.7% 4.0% 3.6% 1.9% 1.8% 1.5% 1.4% 1.1% 1.1% 0.9% 0.9% 0.6%
x264 [info]: ref B L0: 62.4% 13.8% 7.2% 3.8% 2.9% 2.4% 1.9% 1.2% 1.0% 0.9% 0.8% 0.7% 0.6% 0.4% 0.1%
x264 [info]: ref B L1: 89.4% 10.6%
x264 [info]: SSIM Mean Y:0.9502534 (13.032db)
x264 [info]: PSNR Mean Y:41.093 U:45.641 V:48.429 Avg:42.262 Global:41.586 kb/s:3103.34
encoded 151344 frames, 4.36 fps, 3103.35 kb/s

Сравнение с исходником

Source............................vs............................Encode


Резерв



Скриншоты

Резерв
-

If your ratio falls below 0.3, you will not be able to download Torrents! More about the rating.

[erzsebet.pl].t51825.torrent
Torrent: Registered   [ 2017-12-11 02:36 ]

Download .torrent

Download

15 KB

Status: checked
Completed: 16 times
Size: 2.89 GB
terms.php

#1

11-Dec-2017 01:25

[Profile]  [PM] 
Display posts:    

You cannot post new topics in this forum
You cannot reply to topics in this forum
You cannot edit your posts in this forum
You cannot delete your posts in this forum
You cannot vote in polls in this forum
You cannot attach files in this forum
You can download files in this forum
User agreement
For copyright holders
Advertise on this site

Скачайте на халяву через торрент на трекере erzsebet.pl

!ATTENTION!
The site does not give electronic versions of products, and is engaged only in a collecting and cataloguing of the references sent and published at a forum by our readers. If you are the legal owner of any submitted material and do not wish that the reference to it was in our catalogue, contact us and we shall immediately remove her. Files for an exchange on tracker are given by users of a site, and the administration does not bear the responsibility for their maintenance. The request to not fill in the files protected by copyrights, and also files of the illegal maintenance!