Чужие среди нас / Они живут / They Live (Джон Карпентер / John Carpenter) [1988, США, фантастика, ужасы, боевик, BDRip] MVO CP Digital + AVO Живов + AVO Горчаков

DL-List and Torrent activity
Size:  923 MB   |    Registered:  2 years 10 months   |    Completed:  16 times
Seeders:  3   Leechers:  2   Show peers in full details
 
   
 
 

Max Levien ®

Longevity:
2 years 10 months
Posts:
20374

[Quote] 

Они живут / Чужие среди нас / They Live
Страна: США
Жанр: фантастика, ужасы, боевик
Год выпуска: 1988
Продолжительность: 01:34:21
Перевод: Профессиональный (многоголосый закадровый) CP Digital
Перевод 2: Авторский (одноголосый закадровый) Живов
Перевод 3: Авторский (одноголосый закадровый) Горчаков
Субтитры: нет
Режиссер: Джон Карпентер / John Carpenter
В ролях: Родди Пайпер, Кит Дэвид, Мег Фостер, Джордж Бак Флауэр, Питер Джейсон.
Описание: Однажды простой рабочий-строитель Нейда, которому не очень везёт в жизни, находит необычные солнечные очки. Надев их, он получает возможность увидеть мир таким, какой он есть.
Реальность пугает! Оказывается, правительство и средства массовой информации бомбардируют людей скрытыми сообщениями, воздействующими на уровне подсознания: «Спите!», «Не давайте волю воображению», «Подчиняйтесь властям».
А что еще страшнее, Нейда увидел истинное обличье многих политиков и важных членов общества! Они и не люди вовсе, а безобразные и злые инопланетяне с планеты Андромеда. Их миссия на Земле — проводить массовую кампанию по подчинению землян своей воле и держать людей в неведении…
Нейда должен найти людей, которые, как и он, знают об истинном положении вещей (кто еще мог изготовить эти чудесные очки?), и присоединиться к их движению сопротивления, чтобы бороться!

Качество видео: BDRip Исходник
Формат видео: AVI
Видео: 688x288, 24 fps, XviD ~985 kbps avg, 0.198 bit/pixel
Аудио: 48 kHz, MPEG Layer 3, 2 ch, ~128 kbps avg MVO
Аудио 2 48 kHz, MPEG Layer 3, 2 ch, ~128 kbps avg Живов (отдельным файлом)
Аудио 3: 48 kHz, MPEG Layer 3, 2 ch, ~128 kbps avg Горчаков (отдельным файлом)

MediaInfo

Код:General
Complete name : D:\They Live\They Live BDRip.avi
Format : AVI
Format/Info : Audio Video Interleave
File size : 751 MiB
Duration : 1h 34mn
Overall bit rate : 1 113 Kbps
Writing application : VirtualDubMod 1.5.10.2 (build 2540/release)
Writing library : VirtualDubMod build 2540/release
Video
ID : 0
Format : MPEG-4 Visual
Format profile : Advanced [email protected]
Format settings, BVOP : No
Format settings, QPel : No
Format settings, GMC : No warppoints
Format settings, Matrix : Default (MPEG)
Codec ID : XVID
Codec ID/Hint : XviD
Duration : 1h 34mn
Bit rate : 975 Kbps
Width : 688 pixels
Height : 288 pixels
Display aspect ratio : 2.40:1
Frame rate : 24.000 fps
Color space : YUV
Chroma subsampling : 4:2:0
Bit depth : 8 bits
Scan type : Progressive
Compression mode : Lossy
Bits/(Pixel*Frame) : 0.205
Stream size : 658 MiB (88%)
Writing library : XviD 1.2.1 (UTC 2008-12-04)
Audio
ID : 1
Format : MPEG Audio
Format version : Version 1
Format profile : Layer 3
Mode : Joint stereo
Mode extension : MS Stereo
Codec ID : 55
Codec ID/Hint : MP3
Duration : 1h 34mn
Bit rate mode : Constant
Bit rate : 128 Kbps
Channel(s) : 2 channels
Sampling rate : 48.0 KHz
Compression mode : Lossy
Stream size : 86.3 MiB (12%)
Alignment : Aligned on interleaves
Interleave, duration : 42 ms (1.00 video frame)
Interleave, preload duration : 504 ms

Скриншот c названием фильма

Скриншоты

If your ratio falls below 0.3, you will not be able to download Torrents! More about the rating.

[erzsebet.pl].t51827.torrent
Torrent: Registered   [ 2017-12-11 02:36 ]

Download .torrent

Download

19 KB

Status: checked
Completed: 16 times
Size: 923 MB
terms.php

#1

11-Dec-2017 01:25

[Profile]  [PM] 
Display posts:    

You cannot post new topics in this forum
You cannot reply to topics in this forum
You cannot edit your posts in this forum
You cannot delete your posts in this forum
You cannot vote in polls in this forum
You cannot attach files in this forum
You can download files in this forum
User agreement
For copyright holders
Advertise on this site

Скачайте на халяву через торрент на трекере erzsebet.pl

!ATTENTION!
The site does not give electronic versions of products, and is engaged only in a collecting and cataloguing of the references sent and published at a forum by our readers. If you are the legal owner of any submitted material and do not wish that the reference to it was in our catalogue, contact us and we shall immediately remove her. Files for an exchange on tracker are given by users of a site, and the administration does not bear the responsibility for their maintenance. The request to not fill in the files protected by copyrights, and also files of the illegal maintenance!