Предостережение для любопытных / В назидание любопытным / A Warning to the Curious (Лоуренс Гордон Кларк / Lawrence Gordon Clark) [1972, Великобритания, Мистика, DVDRip] VO fiendover

DL-List and Torrent activity
Size:  389 MB   |    Registered:  2 years 10 months   |    Completed:  16 times
Seeders:  2  
 
   
 
 

Max Levien ®

Longevity:
2 years 10 months
Posts:
20374

[Quote] 

Предостережение для любопытных / В назидание любопытным / A Warning to the Curious
Страна: Великобритания
Жанр: Мистика
Год выпуска: 1972
Продолжительность: 00:50:15
Перевод: Любительский (одноголосый закадровый) Доп.инфо о переводе fiendover
Субтитры: нет
Режиссер: Лоуренс Гордон Кларк / Lawrence Gordon Clark
В ролях: Питер Вон, Клайв Свифт, Джулиан Херрингтон, Джон Кирни
Описание: Вдоль побережья Норфолка из уст в уста передается древняя легенда. Говорят, что в темные времена, когда викинги были сущим бичом Божиим, три короны Англии, были спрятаны под землей. Короны, как гласит далее легенда, обладали сверхъестественной силой. Ни одна неприятельская армия не сможет вторгнуться в пределы королевства Англии, пока хотя бы одна корона останется на своем месте. С тех пор одну корону похитили воры и переплавили ее на золото. Вторая была унесена приблизившимся к берегам морем. Теперь осталась последняя корона...
Герой этой атмосферной мистической новеллы решает завладеть ей. Но на его пути встает страж короны, чью клятву не может нарушить даже сама смерть.
Сэмпл: http://multi-up.com/544202
Перевод выполнен на слух
Качество видео: DVDRip
Формат видео: AVI
Видео: 576x432 (1.33:1), 25 fps, XviD Final 1.0 (build 34), 879 kbps avg, 0.14 bit/pixel
Аудио: 48 kHz, MPEG Layer 3, 2 ch, 192.00 kbps avg

MediaInfo

General
Complete name : G:\Translations\Curious\warning_rus.avi
Format : AVI
Format/Info : Audio Video Interleave
File size : 389 MiB
Duration : 50mn 15s
Overall bit rate : 1 082 Kbps
Writing application : VirtualDubModRus 1.5.10.2 (build 2542/release)
Writing library : VirtualDubMod build 2542/release
Video
ID : 0
Format : MPEG-4 Visual
Format profile : Advanced [email protected]
Format settings, BVOP : Yes
Format settings, QPel : No
Format settings, GMC : No warppoints
Format settings, Matrix : Default (H.263)
Muxing mode : Packed bitstream
Codec ID : XVID
Codec ID/Hint : XviD
Duration : 50mn 15s
Bit rate : 880 Kbps
Width : 576 pixels
Height : 432 pixels
Display aspect ratio : 4:3
Frame rate : 25.000 fps
Color space : YUV
Chroma subsampling : 4:2:0
Bit depth : 8 bits
Scan type : Progressive
Bits/(Pixel*Frame) : 0.141
Stream size : 316 MiB (81%)
Writing library : XviD 1.0.0 (UTC 2004-05-09)
Audio
ID : 1
Format : MPEG Audio
Format version : Version 1
Format profile : Layer 3
Mode : Joint stereo
Codec ID : 55
Codec ID/Hint : MP3
Duration : 50mn 15s
Bit rate mode : Constant
Bit rate : 192 Kbps
Channel(s) : 2 channels
Sampling rate : 48.0 KHz
Stream size : 69.0 MiB (18%)
Alignment : Aligned on interleaves
Interleave, duration : 40 ms (1.00 video frame)
Interleave, preload duration : 504 ms

Скриншот c названием фильма

Скриншоты

If your ratio falls below 0.3, you will not be able to download Torrents! More about the rating.

[erzsebet.pl].t51832.torrent
Torrent: Registered   [ 2017-12-11 02:36 ]

Download .torrent

Download

16 KB

Status: checked
Completed: 16 times
Size: 389 MB
terms.php

#1

11-Dec-2017 01:25

[Profile]  [PM] 
Display posts:    

You cannot post new topics in this forum
You cannot reply to topics in this forum
You cannot edit your posts in this forum
You cannot delete your posts in this forum
You cannot vote in polls in this forum
You cannot attach files in this forum
You can download files in this forum
User agreement
For copyright holders
Advertise on this site

Скачайте на халяву через торрент на трекере erzsebet.pl

!ATTENTION!
The site does not give electronic versions of products, and is engaged only in a collecting and cataloguing of the references sent and published at a forum by our readers. If you are the legal owner of any submitted material and do not wish that the reference to it was in our catalogue, contact us and we shall immediately remove her. Files for an exchange on tracker are given by users of a site, and the administration does not bear the responsibility for their maintenance. The request to not fill in the files protected by copyrights, and also files of the illegal maintenance!