Жила-была девочка / Сумасшедший дом / There Was A Little Girl / Madhouse (Овидио Ассонитис / Ovidio Assonitis) [1981, Италия, ужасы, DVDRip] VO (Хэм)

DL-List and Torrent activity
Size:  1.09 GB   |    Registered:  2 years 10 months   |    Completed:  16 times
Seeders:  3  
 
   
 
 

Max Levien ®

Longevity:
2 years 10 months
Posts:
20374

[Quote] 

Жила-была девочка / Сумасшедший дом / There Was A Little Girl / Madhouse
Страна: Италия
Жанр: ужасы
Год выпуска: 1981
Продолжительность: 01:33:17
Перевод: Одноголосый закадровый (Хэм). Перевод некоторых детских стишков (Old King Cole и Hey Diddle Diddle) заимствован у С.Маршака.
Субтитры: нет
Режиссер: Овидио Ассонитис / Ovidio Assonitis
В ролях: Триш Эверли, Дэннис Робертсон, Майкл МакРэй, Эллисон Биггерс
Описание: Джулия Салливан работает учителем в школе для глухих детей и в жизни у неё всё складывается удачно — привлекательная внешность, уважаемая работа и постоянный бойфренд. Но мало кто знает про неприятный секрет — о сестре-близнеце Мэри. Пока они росли вместе, жестокая Мэри дразнила и издевалась над Джулией, и в результате та порвала с ней отношения. Сёстры не общались много лет, пока дядька не сообщил Джулии, что Мэри оказалась в клинике с болезнью, полностью обезобразившей её.
Доп. информация: IMDB / Кинопоиск
Качество видео: DVDRip
Формат видео: AVI
Видео: DIVX, 720x304, 2,35:1, 23,976 fps, 1473 kbps
Аудио: MP3, 44,1 kHz, 192 kbps, 2.0

MediaInfo

Общее
Полное имя : E:\Movs\There.Was.A.Little.Girl.1981.Rus.avi
Формат : AVI
Формат/Информация : Audio Video Interleave
Размер файла : 1,09 Гбайт
Продолжительность : 1 ч. 33 м.
Общий поток : 1675 Кбит/сек
Программа кодирования : mkvextract 5.8.0
Библиотека кодирования : VirtualDub build 32817/release
Видео
Идентификатор : 0
Формат : MPEG-4 Visual
Профиль формата : [email protected]
Параметр BVOP формата : Нет
Параметр QPel формата : Нет
Параметр GMC формата : Без точки перехода
Параметр матрицы формата : Default (H.263)
Идентификатор кодека : DX50
Идентификатор кодека/Подсказка : DivX 5
Продолжительность : 1 ч. 33 м.
Битрейт : 1473 Кбит/сек
Ширина : 720 пикселей
Высота : 304 пикселя
Соотношение сторон : 2,35:1
Частота кадров : 23,976 кадра/сек
Цветовое пространство : YUV
Субдискретизация насыщенности : 4:2:0
Битовая глубина : 8 бит
Тип развёртки : Прогрессивная
Метод сжатия : С потерями
Бит/(Пиксели*Кадры) : 0.281
Размер потока : 983 Мбайт (88%)
Библиотека кодирования : XviD 1.1.2 (UTC 2006-11-01)
Аудио
Идентификатор : 1
Формат : MPEG Audio
Версия формата : Version 1
Профиль формата : Layer 3
Режим : Joint stereo
Идентификатор кодека : 55
Идентификатор кодека/Подсказка : MP3
Продолжительность : 1 ч. 33 м.
Вид битрейта : Постоянный
Битрейт : 192 Кбит/сек
Каналы : 2 канала
Частота : 44,1 КГц
Метод сжатия : С потерями
Размер потока : 128 Мбайт (11%)
Выравнивание : Разделение по промежуткам
Продолжительность промежутка : 42 мс. (1,00 видеокадр)
Время предзагрузки промежутка : 500 мс.

Скриншот c названием фильма

Скриншоты

If your ratio falls below 0.3, you will not be able to download Torrents! More about the rating.

[erzsebet.pl].t51842.torrent
Torrent: Registered   [ 2017-12-11 02:36 ]

Download .torrent

Download

11 KB

Status: checked
Completed: 16 times
Size: 1.09 GB
terms.php

#1

11-Dec-2017 01:25

[Profile]  [PM] 
Display posts:    

You cannot post new topics in this forum
You cannot reply to topics in this forum
You cannot edit your posts in this forum
You cannot delete your posts in this forum
You cannot vote in polls in this forum
You cannot attach files in this forum
You can download files in this forum
User agreement
For copyright holders
Advertise on this site

Скачайте на халяву через торрент на трекере erzsebet.pl

!ATTENTION!
The site does not give electronic versions of products, and is engaged only in a collecting and cataloguing of the references sent and published at a forum by our readers. If you are the legal owner of any submitted material and do not wish that the reference to it was in our catalogue, contact us and we shall immediately remove her. Files for an exchange on tracker are given by users of a site, and the administration does not bear the responsibility for their maintenance. The request to not fill in the files protected by copyrights, and also files of the illegal maintenance!