Красный прибой / Кровавые волны / Red Surf (Х. Гордон Боос / H. Gordon Boos) [1989, США, Боевик, DVDRip] AVO (Юрий Живов)

DL-List and Torrent activity
Size:  1.37 GB   |    Registered:  2 years 10 months   |    Completed:  16 times
Seeders:  2  
 
   
 
 

Max Levien ®

Longevity:
2 years 10 months
Posts:
20374

[Quote] 

Красный прибой / Red Surf
Страна: США
Жанр: Боевик
Год выпуска: 1989
Продолжительность: 01:43:33
Перевод: Авторский (одноголосый закадровый) Юрий Живов
Субтитры: нет
Режиссер: Х. Гордон Боос / H. Gordon Boos
В ролях: Джордж Клуни, Даг Сэвант, Диди Пфайфер, Филип МакКеон, Рик Наджера, Джин Симмонс, Винсент Клин, Эдди Фриаш, Марко Эрнандез, Руди Негрете
Описание: 1. Аннотация от alenavova
Среди группы молодых ребят Марк был заводилой. Они вели веселую жизнь: катались на мотоциклах, играли на музыкальных инструментах, гуляли, шутили друг над другом. А еще у Марка была бессменная любовь - Ребекка, которая ждала от него ребенка. И Марк решил, что для создания семьи и для ребенка нужны хорошие деньги, большие деньги, а добыть их можно, занявшись торговлей кокаином. Но видимая легкость приобретения деньжат на этом поприще вышла, как говорится, боком: втянув своих друзей в процесс добывания и сбыта наркотиков, Марк вклинился в сферу деятельности опасных преступников, не знающих жалости... Картина балансирует на грани проблемной молодежной драмы и остросюжетного боевика, в конце откровенно склоняясь ко второму, что, впрочем, не сказывается на фильме отрицательно. Одну из ролей сыграл Джин Симмонс, лидер знаменитой рок-группы "Kiss", поддерживающий активные контакты с кинематографом.
2. Марк Ремар — главарь банды, занимающейся доставкой наркотиков для калифорнийского босса Энрике Калаверы. Однажды он принимает решение завязать с преступным бизнесом, но сначала — провернуть последнюю, очень крупную сделку.
Но невыполнение им одного обязательства приводит к войне с Калаверой, и жизнь Ремара, не говоря уж о планах на будущее, оказываются под угрозой…
Доп. информация: Дорожка с Ю. Живовым синхронизирована, ремастерирована и наложена ale_x2008 при помощи iZotope RX2, Sony Vegas и VirtualDubMod.
За оцифрованную с VHS дорожку благодарим - alenavova

Релиз
Сэмпл: http://multi-up.com/1098597
Качество видео: DVDRip
Формат видео: AVI
Видео: XviD build 73, 704x544 (1.29:1), 25.00 fps, 1690 kbps avg, 0.18 bit/pixel
Аудио: AC3 Dolby Digital, 48000Hz, 2/0 (L,R) ch (mono), 192.00 kbps avg

MediaInfo

Красный прибой - Red Surf (by ale_x2008).avi
Format : AVI
Format/Info : Audio Video Interleave
File size : 1.37 GiB
Duration : 1h 43mn
Overall bit rate : 1 893 Kbps
Movie name : Красный прибой - Red Surf (by ale_x2008)
Director : by ale_x2008
Writing application : VirtualDubMod 1.5.10.3 (build 2550/release)
Copyright : Edich2
Comment : erzsebet.org
Video
ID : 0
Format : MPEG-4 Visual
Format profile : Advanced [email protected]
Format settings, BVOP : 2
Format settings, QPel : No
Format settings, GMC : No warppoints
Format settings, Matrix : Custom
Codec ID : XVID
Codec ID/Hint : XviD
Duration : 1h 43mn
Bit rate : 1 691 Kbps
Width : 704 pixels
Height : 544 pixels
Display aspect ratio : 1.294
Frame rate : 25.000 fps
Color space : YUV
Chroma subsampling : 4:2:0
Bit depth : 8 bits
Scan type : Progressive
Compression mode : Lossy
Bits/(Pixel*Frame) : 0.177
Stream size : 1.22 GiB (89%)
Writing library : XviD 73
Audio
ID : 1
Format : AC-3
Format/Info : Audio Coding 3
Mode extension : CM (complete main)
Format settings, Endianness : Big
Codec ID : 2000
Duration : 1h 43mn
Bit rate mode : Constant
Bit rate : 192 Kbps
Channel(s) : 2 channels
Channel positions : Front: L R
Sampling rate : 48.0 KHz
Frame rate : 31.250 fps (1536 spf)
Compression mode : Lossy
Stream size : 142 MiB (10%)
Alignment : Split accross interleaves
Interleave, duration : 40 ms (1.00 video frame)
Interleave, preload duratio : 500 ms

Скриншоты


If your ratio falls below 0.3, you will not be able to download Torrents! More about the rating.

[erzsebet.pl].t51843.torrent
Torrent: Registered   [ 2017-12-11 02:36 ]

Download .torrent

Download

14 KB

Status: checked
Completed: 16 times
Size: 1.37 GB
terms.php

#1

11-Dec-2017 01:25

[Profile]  [PM] 
Display posts:    

You cannot post new topics in this forum
You cannot reply to topics in this forum
You cannot edit your posts in this forum
You cannot delete your posts in this forum
You cannot vote in polls in this forum
You cannot attach files in this forum
You can download files in this forum
User agreement
For copyright holders
Advertise on this site

Скачайте на халяву через торрент на трекере erzsebet.pl

!ATTENTION!
The site does not give electronic versions of products, and is engaged only in a collecting and cataloguing of the references sent and published at a forum by our readers. If you are the legal owner of any submitted material and do not wish that the reference to it was in our catalogue, contact us and we shall immediately remove her. Files for an exchange on tracker are given by users of a site, and the administration does not bear the responsibility for their maintenance. The request to not fill in the files protected by copyrights, and also files of the illegal maintenance!