Ловушка для родителей: Медовый месяц на Гавайях / Parent Trap: Hawaiian Honeymoon (Молли Миллер / Mollie Miller) [1989, США, драма, комедия, семейный, VHSRip] MVO (СТС)

DL-List and Torrent activity
Size:  1.31 GB   |    Registered:  2 years 10 months   |    Completed:  16 times
Seeders:  4  
 
   
 
 

Max Levien ®

Longevity:
2 years 10 months
Posts:
20374

[Quote] 

Ловушка для родителей: Медовый месяц на Гавайях / Parent Trap: Hawaiian Honeymoon
Страна: США
Жанр: драма, комедия, семейный
Год выпуска: 1989
Продолжительность: 01:25:01
Перевод: Профессиональный (многоголосый закадровый) СТС
Субтитры: нет
Режиссер: Молли Миллер / Mollie Miller
В ролях: Хейли Миллз,Бэрри Боствик,Джой Крил,Лианна Крил,Моника Крил,Саша Митчелл,Лайтфилд Льюис,Гленн Шэдикс,Джейн Медоуз,Нэнси Ленехан,Уэйн Федерман,Джо Мейс,Майк Эбнер,Стив Перри
Описание: Унаследовав семейный курорт на Гавайях, семья Уайаттов приезжает посмотреть на наследство и обнаруживает его в весьма плачевном состоянии. Поначалу они пытаются все отремонтировать, но потом, отчаявшись это сделать, решают продать. И тут отец семейства Джеффри встречает старого школьного приятеля, который предлагает купить у Джеффри курорт, обещая, что никаких серьезных изменений не внесет…
Доп. информация: За VHS большое спасибо Manner_Game
Релиз
Фильм из рубрики Дисней по пятницам http://erzsebet.org/forum/viewtopic.php?t=1302557

Качество видео: VHSRip
Формат видео: AVI
Видео: 640x480 (1.33:1), 25 fps, XviD build 50 ~1996 kbps avg, 0.26 bit/pixel
Аудио: 48 kHz, AC3 Dolby Digital, 2/0 (L,R) ch, ~192 kbps

MediaInfo

Ловушка для родителей - Медовый месяц на Гавайях - Parent Trap - Hawaiian Honeymoon [by Edich2].avi
Format : AVI
Format/Info : Audio Video Interleave
File size : 1.31 GiB
Duration : 1h 25mn
Overall bit rate : 2 201 Kbps
Movie name : Ловушка для родителей - Медовый месяц на Гавайях - Parent Trap - Hawaiian Honeymoon [by Edich2]
Director : Rip by Edich2
Writing application : VirtualDubMod 1.5.10.2 (build 2540/release)
Comment : erzsebet.org
Video
ID : 0
Format : MPEG-4 Visual
Format profile : Advanced [email protected]
Format settings, BVOP : 2
Format settings, QPel : No
Format settings, GMC : No warppoints
Format settings, Matrix : Custom
Codec ID : XVID
Codec ID/Hint : XviD
Duration : 1h 25mn
Bit rate : 1 999 Kbps
Width : 640 pixels
Height : 480 pixels
Display aspect ratio : 4:3
Frame rate : 25.000 fps
Color space : YUV
Chroma subsampling : 4:2:0
Bit depth : 8 bits
Scan type : Progressive
Compression mode : Lossy
Bits/(Pixel*Frame) : 0.260
Stream size : 1.19 GiB (91%)
Writing library : XviD 1.2.1 (UTC 2008-12-04)
Audio
ID : 1
Format : AC-3
Format/Info : Audio Coding 3
Mode extension : CM (complete main)
Format settings, Endianness : Big
Codec ID : 2000
Duration : 1h 25mn
Bit rate mode : Constant
Bit rate : 192 Kbps
Channel count : 2 channels
Channel positions : Front: L R
Sampling rate : 48.0 KHz
Bit depth : 16 bits
Compression mode : Lossy
Stream size : 117 MiB (9%)
Alignment : Split accross interleaves
Interleave, duration : 40 ms (1.00 video frame)
Interleave, preload duration : 500 ms

Скриншоты


If your ratio falls below 0.3, you will not be able to download Torrents! More about the rating.

[erzsebet.pl].t51845.torrent
Torrent: Registered   [ 2017-12-11 02:36 ]

Download .torrent

Download

14 KB

Status: checked
Completed: 16 times
Size: 1.31 GB
terms.php

#1

11-Dec-2017 01:25

[Profile]  [PM] 
Display posts:    

You cannot post new topics in this forum
You cannot reply to topics in this forum
You cannot edit your posts in this forum
You cannot delete your posts in this forum
You cannot vote in polls in this forum
You cannot attach files in this forum
You can download files in this forum
User agreement
For copyright holders
Advertise on this site

Скачайте на халяву через торрент на трекере erzsebet.pl

!ATTENTION!
The site does not give electronic versions of products, and is engaged only in a collecting and cataloguing of the references sent and published at a forum by our readers. If you are the legal owner of any submitted material and do not wish that the reference to it was in our catalogue, contact us and we shall immediately remove her. Files for an exchange on tracker are given by users of a site, and the administration does not bear the responsibility for their maintenance. The request to not fill in the files protected by copyrights, and also files of the illegal maintenance!