Свадьба Бэтси / Betsy's Wedding (Алан Алда / Alan Alda) [1990, США, Комедия, мелодрама, DVDRip] AVO Михалев

DL-List and Torrent activity
Size:  1.46 GB   |    Registered:  2 years 10 months   |    Completed:  16 times
Seeders:  2  
 
   
 
 

Max Levien ®

Longevity:
2 years 10 months
Posts:
20374

[Quote] 

Свадьба Бэтси / Betsy's Wedding
Страна: США
Жанр: Комедия, мелодрама
Год выпуска: 1990
Продолжительность: 01:30:14
Перевод: Авторский (одноголосый закадровый) Михалев
Субтитры: нет
Режиссер: Алан Алда / Alan Alda
В ролях: Алан Алда, Джои Бишоп, Мэдлин Кан, Энтони ЛаПалья, Кэтрин О’Хара, Джо Пеши, Молли Рингуолд, Элли Шиди, Берт Янг, Джули Бовассо
Описание: Бывают такие невероятные типы, готовые из самых лучших побуждений испортить все, что только можно. К таким как раз относится Эдди Хоппер, папа прелестной Бетси, собравшейся замуж за парня из богатой, респектабельной семьи. Не желая ударить в грязь лицом Эдди с упоением планирует грандиозную свадебную церемонию, мечтая поразить всех пышностью и размахом торжества. Лучше бы он был скромнее: вбухав в это дело кучу денег, неуемный отче и оглянуться не успел, как оказался на грани финансовой пропасти. Еще немного, и все его безумные закулисные махинации выплывут наружу. Или все-таки произойдет чудо, которое спасет фонтанирующего разорительными идеями Эдди?
Доп. информация: Данный DVDRip сделан из DVD5, за который, огромнейшее спасибо "*Sergeant_am*"!!!
Сэмпл: http://multi-up.com/546727
Качество видео: DVDRip
Формат видео: AVI
Видео: 704x384 (1.83:1), 25 fps, XviD build 50, 2118 kbps avg, 0.31 bit/pixel
Аудио: Русский: 48 kHz, AC3 Dolby Digital, 2/0 (L,R) ch, 192.00 kbps avgРелиз группы:

MediaInfo

General
Complete name : D:\Мои раздачи\Betsy's Wedding_1,46.avi
Format : AVI
Format/Info : Audio Video Interleave
File size : 1.46 GiB
Duration : 1h 30mn
Overall bit rate : 2 320 Kbps
Writing application : VirtualDubMod 1.5.10.3 | www.virtualdub-fr.org || (build 2550/release)
Writing library : VirtualDubMod build 2550/release
Video
ID : 0
Format : MPEG-4 Visual
Format profile : Advanced [email protected]
Format settings, BVOP : Yes
Format settings, QPel : No
Format settings, GMC : No warppoints
Format settings, Matrix : Custom
Codec ID : XVID
Codec ID/Hint : XviD
Duration : 1h 30mn
Bit rate : 2 119 Kbps
Width : 704 pixels
Height : 384 pixels
Display aspect ratio : 16:9
Frame rate : 25.000 fps
Color space : YUV
Chroma subsampling : 4:2:0
Bit depth : 8 bits
Scan type : Progressive
Compression mode : Lossy
Bits/(Pixel*Frame) : 0.313
Stream size : 1.34 GiB (91%)
Writing library : XviD 1.2.1 (UTC 2008-12-04)
Audio
ID : 1
Format : AC-3
Format/Info : Audio Coding 3
Mode extension : CM (complete main)
Codec ID : 2000
Duration : 1h 30mn
Bit rate mode : Constant
Bit rate : 192 Kbps
Channel(s) : 2 channels
Channel positions : Front: L R
Sampling rate : 48.0 KHz
Bit depth : 16 bits
Compression mode : Lossy
Stream size : 124 MiB (8%)
Alignment : Split accross interleaves
Interleave, duration : 40 ms (1.00 video frame)
Interleave, preload duration : 500 ms

Скриншот c названием фильма

Скриншоты

If your ratio falls below 0.3, you will not be able to download Torrents! More about the rating.

[erzsebet.pl].t51847.torrent
Torrent: Registered   [ 2017-12-11 02:36 ]

Download .torrent

Download

15 KB

Status: checked
Completed: 16 times
Size: 1.46 GB
terms.php

#1

11-Dec-2017 01:25

[Profile]  [PM] 
Display posts:    

You cannot post new topics in this forum
You cannot reply to topics in this forum
You cannot edit your posts in this forum
You cannot delete your posts in this forum
You cannot vote in polls in this forum
You cannot attach files in this forum
You can download files in this forum
User agreement
For copyright holders
Advertise on this site

Скачайте на халяву через торрент на трекере erzsebet.pl

!ATTENTION!
The site does not give electronic versions of products, and is engaged only in a collecting and cataloguing of the references sent and published at a forum by our readers. If you are the legal owner of any submitted material and do not wish that the reference to it was in our catalogue, contact us and we shall immediately remove her. Files for an exchange on tracker are given by users of a site, and the administration does not bear the responsibility for their maintenance. The request to not fill in the files protected by copyrights, and also files of the illegal maintenance!