Две девушки в пижамах / Две девушки в одной пижаме / Deux grandes filles dans un pyjama (Жан Жиро / Jean Girault) [1974, Франция, комедия, DVDRip] VO (Andi) + Sub Rus

DL-List and Torrent activity
Size:  1.36 GB   |    Registered:  2 years 10 months   |    Completed:  16 times
Seeders:  4  
 
   
 
 

Max Levien ®

Longevity:
2 years 10 months
Posts:
20374

[Quote] 

Две девушки в пижамах / Две девушки в одной пижаме / Deux grandes filles dans un pyjama
Страна: Франция
Жанр: комедия
Год выпуска: 1974
Продолжительность: 01:30:50
Перевод: Одноголосый закадровый Andi
Субтитры: русские river11
Оригинальная аудиодорожка: нет
Режиссер: Жан Жиро / Jean Girault
В ролях: Филипп Нико, Жак Жуанно, Мишель Галабрю, Мишлин Прель, Марша Грант, Шарлотта Кинберг, Катя Ченко, Поль Мерси, Филипп Кастелли
Описание: Мужчина средних лет, отправив супругу на отдых и желая поразвлечься, знакомится в аэропорту с двумя молодыми, достаточно раскрепощенными девушками, путешествующими по Европе, и приглашает их в гости. Боясь, что не справится с двумя новыми подругами в одиночку, наш герой приглашает соседа и вся дружная компания попадает в целую череду комических ситуаций.
Дополнительная информация: Озвучка доступна благодаря будулайроманов
Сэмпл: http://multi-up.com/980043
Качество видео: DVDRip
Формат видео: AVI
Видео: 704x512 (1.38:1), 25 fps, XviD build 47 ~1946 kbps avg, 0.22 bit/pixel
Аудио: 48 kHz, AC 3, 2 ch, ~192.00 kbps avg

MediaInfo

Общее
Полное имя : L:\Deux grandes filles dans un pyjama (1974) (VO Andi)\Deux grandes filles dans un pyjama(1975).avi
Формат : AVI
Формат/Информация : Audio Video Interleave
Размер файла : 1,36 Гбайт
Продолжительность : 1 ч. 30 м.
Общий поток : 2148 Кбит/сек
Программа кодирования : VirtualDubMod 1.5.10.2 (build 2540/release)
Библиотека кодирования : VirtualDubMod build 2540/release
Видео
Идентификатор : 0
Формат : MPEG-4 Visual
Профиль формата : Advanced [email protected]
Параметр BVOP формата : 2
Параметр QPel формата : Нет
Параметр GMC формата : Без точки перехода
Параметр матрицы формата : Default (H.263)
Идентификатор кодека : XVID
Идентификатор кодека/Подсказка : XviD
Продолжительность : 1 ч. 30 м.
Битрейт : 1946 Кбит/сек
Ширина : 704 пикселя
Высота : 512 пикселей
Соотношение сторон : 1,375
Частота кадров : 25,000 кадров/сек
Цветовое пространство : YUV
Субдискретизация насыщенности : 4:2:0
Битовая глубина : 8 бит
Тип развёртки : Прогрессивная
Метод сжатия : С потерями
Бит/(Пиксели*Кадры) : 0.216
Размер потока : 1,24 Гбайт (91%)
Библиотека кодирования : XviD 1.2.0.dev47 (UTC 2006-11-01)
Аудио
Идентификатор : 1
Формат : AC-3
Формат/Информация : Audio Coding 3
Расширение режима : CM (complete main)
Параметр Endianness формата : Big
Идентификатор кодека : 2000
Продолжительность : 1 ч. 30 м.
Вид битрейта : Постоянный
Битрейт : 192 Кбит/сек
Каналы : 2 канала
Расположение каналов : Front: L R
Частота : 48,0 КГц
Битовая глубина : 16 бит
Метод сжатия : С потерями
Размер потока : 125 Мбайт (9%)
Выравнивание : Разделение по промежуткам
Продолжительность промежутка : 40 мс. (1,00 видеокадр)
Время предзагрузки промежутка : 500 мс.

Скриншот c названием фильма

Скриншоты

перевод доступен благодаря содействию dimmm2v

If your ratio falls below 0.3, you will not be able to download Torrents! More about the rating.

[erzsebet.pl].t51855.torrent
Torrent: Registered   [ 2017-12-11 02:36 ]

Download .torrent

Download

14 KB

Status: checked
Completed: 16 times
Size: 1.36 GB
terms.php

#1

11-Dec-2017 01:25

[Profile]  [PM] 
Display posts:    

You cannot post new topics in this forum
You cannot reply to topics in this forum
You cannot edit your posts in this forum
You cannot delete your posts in this forum
You cannot vote in polls in this forum
You cannot attach files in this forum
You can download files in this forum
User agreement
For copyright holders
Advertise on this site

Скачайте на халяву через торрент на трекере erzsebet.pl

!ATTENTION!
The site does not give electronic versions of products, and is engaged only in a collecting and cataloguing of the references sent and published at a forum by our readers. If you are the legal owner of any submitted material and do not wish that the reference to it was in our catalogue, contact us and we shall immediately remove her. Files for an exchange on tracker are given by users of a site, and the administration does not bear the responsibility for their maintenance. The request to not fill in the files protected by copyrights, and also files of the illegal maintenance!